13 жизней / Thirteen Lives (2022) WEB-DLRip [H.264/1080p] [MVO] [AD]

Ответить на тему
 
Автор Сообщение

admin ®

Пол: Не указан

Стаж: 5 месяца

Сообщений: 10110

Создавать темы 30-Янв-2024 15:36

[Цитировать]

13 жизней / Thirteen Lives (2022) WEB-DLRip [H.264/1080p]- Производство: Великобритания / Storyteller Productions, Magnolia Mae Films, Imagine Entertainment
Жанр: триллер, драма, биография
Режиссер: Рон Ховард
Актеры: Вигго Мортенсен, Колин Фаррелл, Джоэл Эдгертон, Пол Глисон, Том Бейтман, Нопханд Буньяй, Girati Sugiyama, Тирадон Супапунпинйо, Pasakorn Hoyhon, Tanatat Srita
Описание:
Летом 2018 года подростки из футбольной команды вместе со своим тренером оказались в ловушке пещерного комплекса в Таиланде, выход из которого был затоплен водой. Пока они ищут спасения от подступающей воды, во внешнем мире собирается отряд для их спасения. Основано на реальных событиях.
Рейтинг MPAA: PG-13 (детям до 13 лет просмотр нежелателен)
Дата мировой премьеры: 29 июля 2022
Цифровой релиз: 5 августа 2022

Продолжительность: 02:28:17
Качество видео: WEB-DLRip
Перевод: Многоголосый любительский (MUZOBOZ)
Субтитры: Отсутствуют
Реклама: Присутствует баннер.
Видео: AVC/H.264, 1920x796, ~7695 Kbps
Аудио: AC3, 2 ch, 384 Kbps

MediaInfo:

Общее
Уникальный идентификатор : 207165665227949161818255485912813657522 (0x9BDAA7E33D2A740D8F6C725D3387DDB2)
Полное имя : D:\NNM\13 жизней\Thirteen.Lives.2022.WEB-DLRip.1080p.mkv
Формат : Matroska
Версия формата : Version 4
Размер файла : 8,54 Гбайт
Продолжительность : 2 ч. 28 м.
Режим общего битрейта : Постоянный
Общий поток : 8 243 Кбит/сек
Дата кодирования : UTC 2022-08-07 10:40:18
Программа кодирования : mkvmerge v6.9.1 ('Blue Panther') 32bit built on Apr 18 2014 18:15:44
Библиотека кодирования : libebml v1.3.0 + libmatroska v1.4.1
Видео
Идентификатор : 1
Формат : AVC
Формат/Информация : Advanced Video Codec
Профиль формата : High@L4.1
Настройки формата : CABAC / 4 Ref Frames
Параметр CABAC формата : Да
Параметр RefFrames формата : 4 кадра
Идентификатор кодека : V_MPEG4/ISO/AVC
Продолжительность : 2 ч. 28 м.
Вид битрейта : Постоянный
Битрейт : 7 695 Кбит/сек
Номинальный битрейт : 9 000 Кбит/сек
Ширина : 1 920 пикселей
Высота : 796 пикселей
Соотношение сторон : 2,40:1
Режим частоты кадров : Постоянный
Частота кадров : 23,976 (24000/1001) кадра/сек
Стандарт вещания : Component
Цветовое пространство : YUV
Субдискретизация насыщенности : 4:2:0
Битовая глубина : 8 бит
Тип развёртки : Прогрессивная
Бит/(Пиксели*Кадры) : 0.210
Размер потока : 7,97 Гбайт (93%)
Default : Нет
Forced : Нет
Цветовой диапазон : Limited
Основные цвета : BT.709
Характеристики трансфера : BT.709
Коэффициенты матрицы : BT.709
Аудио
Идентификатор : 2
Формат : AC-3
Формат/Информация : Audio Coding 3
Коммерческое название : Dolby Digital
Идентификатор кодека : A_AC3
Продолжительность : 2 ч. 28 м.
Вид битрейта : Постоянный
Битрейт : 384 Кбит/сек
Каналы : 2 канала
Channel layout : L R
Частота : 48,0 КГц
Частота кадров : 31,250 кадров/сек (1536 SPF)
Метод сжатия : С потерями
Размер потока : 407 Мбайт (5%)
Заголовок : MVO - MUZOBOZ
Язык : Russian
Service kind : Complete Main
Default : Да
Forced : Нет
Скриншоты: Все одноименные релизы в КлубеВремя раздачи: 24/7 (до 10-ти скачавших)
[Профиль] [ЛС]
Показать сообщения:    
Ответить на тему

Текущее время: 28-Фев 23:34

Часовой пояс: UTC ± 0



Вы не можете начинать темы
Вы не можете отвечать на сообщения
Вы не можете редактировать свои сообщения
Вы не можете удалять свои сообщения
Вы не можете голосовать в опросах
Вы не можете прикреплять файлы к сообщениям
Вы не можете скачивать файлы

[  Время выполнения: 0,034 сек  |  MySQL: 0,003 сек (8%) · 3 запр.  |  GZIP выкл  |  Память: 422,29 KB / 1,74 MB / 1,34 MB  |  Лимит: 9 9 10  ]