Однажды на преступлении / Cera una volta il crimine (Once upon a time there was crime) (2022) BDRip [H.264/1080p] [MVO] [AD]

Ответить на тему
 
Автор Сообщение

admin ®

Пол: Не указан

Стаж: 4 месяца 23 дня

Сообщений: 10110

Создавать темы 30-Янв-2024 15:36

[Цитировать]

Однажды на преступлении / Cera una volta il crimine (Once upon a time there was crime) (2022) BDRip [H.264/1080p]- Производство: Италия / Italian International Film, Rai Cinema, Ministero della Cultura (MiC)
Жанр: комедия, криминал, военный
Режиссер: Массимилиано Бруно
Актеры: Марко Джаллини, Каролина Крешентини, Иления Пасторелли, Эдоардо Лео, Массимилиано Бруно, Джулия Бевилакуа, Джампаоло Морелли, Джанмарко Тоньяцци, Роландо Равелло, Эудженио Краусс
Описание:
Продолжение межвременных приключений Морено и Джузеппе. На этот раз Джанфранко и Лорелла отправляют их в 1943 год. Их цель - выкрасть Мону Лизу из замка во Франции. Чтобы помочь им в этом деле, с ними отправляется Клаудио, кузен Лореллы и учитель истории, которого отправили в бессрочный отпуск за нападение на ученика. В прошлом троице удаётся сбежать с драгоценной картиной, но всё проходит не со всем по плану, и, чтобы скрыться от немецких солдат, они отправляются к дому Адель, бабушки Морено. Но всё снова идёт не по плану и дочь Адель Моника, мама Морено, оказывается в руках у немцев. И теперь, прежде чем вернуться в настоящее, Морено, Джузеппе и Клаудио должны спасти маленькую девочку.
Дата мировой премьеры: 10 марта 2022
Продолжительность: 01:36:34
Качество видео: BDRip
Перевод: Многоголосый любительский (MUZOBOZ)
Субтитры: Отсутствуют
Реклама: Присутствует баннер.
Видео: AVC/H.264, 1920x804, ~10,6 Mbps
Аудио: AC3, 2 ch, 384 Kbps

MediaInfo:

Общее
Полное имя : D:\NNM\Однажды на преступлении\Cera.una.volta.il.crimine.2022.BDRip.1080p.mkv
Формат : Matroska
Версия формата : Version 2
Размер файла : 7,55 Гбайт
Продолжительность : 1 ч. 36 м.
Режим общего битрейта : Постоянный
Общий поток : 11,2 Мбит/сек
Программа кодирования : libmatroska 1.4.1
Библиотека кодирования : SolveigMM Matroska Muxer Version 1.0.1904.23
Видео
Идентификатор : 1
Формат : AVC
Формат/Информация : Advanced Video Codec
Профиль формата : High@L4.1
Настройки формата : CABAC / 4 Ref Frames
Параметр CABAC формата : Да
Параметр RefFrames формата : 4 кадра
Идентификатор кодека : V_MPEG4/ISO/AVC
Продолжительность : 1 ч. 36 м.
Вид битрейта : Постоянный
Битрейт : 10,6 Мбит/сек
Номинальный битрейт : 12,0 Мбит/сек
Ширина : 1 920 пикселей
Высота : 804 пикселя
Соотношение сторон : 2,40:1
Режим частоты кадров : Постоянный
Частота кадров : 23,976 (24000/1001) кадра/сек
Стандарт вещания : Component
Цветовое пространство : YUV
Субдискретизация насыщенности : 4:2:0
Битовая глубина : 8 бит
Тип развёртки : Прогрессивная
Бит/(Пиксели*Кадры) : 0.286
Размер потока : 7,14 Гбайт (95%)
Default : Нет
Forced : Нет
Цветовой диапазон : Limited
Основные цвета : BT.709
Характеристики трансфера : BT.709
Коэффициенты матрицы : BT.709
Аудио
Идентификатор : 2
Формат : AC-3
Формат/Информация : Audio Coding 3
Коммерческое название : Dolby Digital
Идентификатор кодека : A_AC3
Продолжительность : 1 ч. 36 м.
Вид битрейта : Постоянный
Битрейт : 384 Кбит/сек
Каналы : 2 канала
Channel layout : L R
Частота : 48,0 КГц
Частота кадров : 31,250 кадров/сек (1536 SPF)
Метод сжатия : С потерями
Размер потока : 265 Мбайт (3%)
Язык : Russian
Service kind : Complete Main
Default : Нет
Forced : Нет
Скриншоты: Все одноименные релизы в КлубеВремя раздачи: 24/7 (до 10-ти скачавших)
[Профиль] [ЛС]
Показать сообщения:    
Ответить на тему

Текущее время: 22-Фев 02:21

Часовой пояс: UTC ± 0



Вы не можете начинать темы
Вы не можете отвечать на сообщения
Вы не можете редактировать свои сообщения
Вы не можете удалять свои сообщения
Вы не можете голосовать в опросах
Вы не можете прикреплять файлы к сообщениям
Вы не можете скачивать файлы

[  Время выполнения: 0,031 сек  |  MySQL: 0,003 сек (11%) · 3 запр.  |  GZIP выкл  |  Память: 421,85 KB / 1,72 MB / 1,32 MB  |  Лимит: 8 8 9  ]