Однажды на преступлении / Cera una volta il crimine (Once upon a time there was crime) (2022) HDRip [MVO] [AD]

Ответить на тему
 
Автор Сообщение

admin ®

Пол: Не указан

Стаж: 5 месяца 1 день

Сообщений: 10110

Создавать темы 30-Янв-2024 15:35

[Цитировать]

Однажды на преступлении / Cera una volta il crimine (Once upon a time there was crime) (2022) HDRip- Производство: Италия / Italian International Film, Rai Cinema, Ministero della Cultura (MiC)
Жанр: комедия, криминал, военный
Режиссер: Массимилиано Бруно
Актеры: Марко Джаллини, Каролина Крешентини, Иления Пасторелли, Эдоардо Лео, Массимилиано Бруно, Джулия Бевилакуа, Джампаоло Морелли, Джанмарко Тоньяцци, Роландо Равелло, Эудженио Краусс
Описание:
Продолжение межвременных приключений Морено и Джузеппе. На этот раз Джанфранко и Лорелла отправляют их в 1943 год. Их цель - выкрасть Мону Лизу из замка во Франции. Чтобы помочь им в этом деле, с ними отправляется Клаудио, кузен Лореллы и учитель истории, которого отправили в бессрочный отпуск за нападение на ученика. В прошлом троице удаётся сбежать с драгоценной картиной, но всё проходит не со всем по плану, и, чтобы скрыться от немецких солдат, они отправляются к дому Адель, бабушки Морено. Но всё снова идёт не по плану и дочь Адель Моника, мама Морено, оказывается в руках у немцев. И теперь, прежде чем вернуться в настоящее, Морено, Джузеппе и Клаудио должны спасти маленькую девочку.
Дата мировой премьеры: 10 марта 2022
Продолжительность: 01:36:34
Качество видео: HDRip
Перевод: Многоголосый любительский (MUZOBOZ)
Субтитры: Отсутствуют
Реклама: Присутствует баннер.
Видео: XviD, 720x304, ~1896 Kbps
Аудио: AC-3, 2 ch, 256 Kbps

MediaInfo:

Общее
Полное имя : D:\NNM\Однажды на преступлении\Cera.una.volta.il.crimine.2022.HDRip.avi
Формат : AVI
Формат/Информация : Audio Video Interleave
Размер файла : 1,46 Гбайт
Продолжительность : 1 ч. 36 м.
Общий поток : 2 161 Кбит/сек
Программа кодирования : VirtualDubMod 1.5.10.3 | www.virtualdub-fr.org || (build 2550/release)
Библиотека кодирования : VirtualDubMod build 2550/release
Видео
Идентификатор : 0
Формат : MPEG-4 Visual
Профиль формата : Advanced Simple@L5
Настройки формата : BVOP1 / Custom Matrix
Параметр BVOP формата : 1
Параметр QPel формата : Нет
Параметр GMC формата : Без точки перехода
Параметр матрицы формата : Выборочная
Идентификатор кодека : XVID
Идентификатор кодека/Подсказка : XviD
Продолжительность : 1 ч. 36 м.
Битрейт : 1 896 Кбит/сек
Ширина : 720 пикселей
Высота : 304 пикселя
Соотношение сторон : 2,35:1
Частота кадров : 23,976 (24000/1001) кадра/сек
Цветовое пространство : YUV
Субдискретизация насыщенности : 4:2:0
Битовая глубина : 8 бит
Тип развёртки : Прогрессивная
Метод сжатия : С потерями
Бит/(Пиксели*Кадры) : 0.361
Размер потока : 1,28 Гбайт (88%)
Библиотека кодирования : XviD 73
Аудио
Идентификатор : 1
Формат : AC-3
Формат/Информация : Audio Coding 3
Коммерческое название : Dolby Digital
Идентификатор кодека : 2000
Продолжительность : 1 ч. 36 м.
Вид битрейта : Постоянный
Битрейт : 256 Кбит/сек
Каналы : 2 канала
Channel layout : L R
Частота : 48,0 КГц
Частота кадров : 31,250 кадров/сек (1536 SPF)
Метод сжатия : С потерями
Размер потока : 177 Мбайт (12%)
Выравнивание : Разделение по промежуткам
Продолжительность промежутка : 42 мс. (1,00 видеокадр)
Время предзагрузки промежутка : 500 мс.
Service kind : Complete Main
Скриншоты: Все одноименные релизы в КлубеВремя раздачи: 24/7 (до 10-ти скачавших)
[Профиль] [ЛС]
Показать сообщения:    
Ответить на тему

Текущее время: 29-Фев 13:11

Часовой пояс: UTC ± 0



Вы не можете начинать темы
Вы не можете отвечать на сообщения
Вы не можете редактировать свои сообщения
Вы не можете удалять свои сообщения
Вы не можете голосовать в опросах
Вы не можете прикреплять файлы к сообщениям
Вы не можете скачивать файлы

[  Время выполнения: 0,032 сек  |  MySQL: 0,004 сек (12%) · 3 запр.  |  GZIP выкл  |  Память: 422,29 KB / 1,72 MB / 1,32 MB  |  Лимит: 13 15 16  ]