Развод в стиле кунг-фу / Kung Fu Zohra (2022) WEB-DLRip [H.264/1080p] [MVO] [AD]

Ответить на тему
 
Автор Сообщение

admin ®

Пол: Не указан

Стаж: 5 месяца

Сообщений: 10110

Создавать темы 30-Янв-2024 15:35

[Цитировать]

Развод в стиле кунг-фу / Kung Fu Zohra (2022) WEB-DLRip [H.264/1080p]- Производство: Франция, Бельгия / Les Films du Kiosque, Gaumont, France 2 Cinéma
Жанр: боевик, драма
Режиссер: Мабрук Эль Мекри
Актеры: Сабрина Уазани, Рамзи Бедиа, Эй Айдара, Шуэ Тиэнь, Лина Хачани, Матье Бюрнель, Оливия Коте, Али Эль Мехри Эфира, Франк Роперс, Акреф Мажоуд
Описание:
Муж Зоры — далеко не совершенство: идеальный папа для их маленькой дочки порой превращается в настоящего монстра и держит семью в страхе. Зора терпит, боясь, что развод разлучит её с малышкой. Но все меняется, когда она встречает загадочного мастера кунг-фу. В этот день женщина четко понимает — с неё хватит!
Возраст: 16+ (зрителям, достигшим 16 лет)
Дата мировой премьеры: 9 марта 2022
Дата премьеры в России: 18 августа 2022

Продолжительность: 01:38:10
Качество видео: WEB-DLRip
Перевод: Многоголосый любительский (MUZOBOZ)
Субтитры: Отсутствуют
Реклама: Присутствует баннер.
Видео: AVC/H.264, 1920x804, ~7029 Kbps
Аудио: AC3, 2 ch, 384 Kbps

MediaInfo:

Общее
Полное имя : D:\NNM\Развод в стиле кунг-фу\Kung.Fu.Zohra.2022.WEB-DLRip.1080p.mkv
Формат : Matroska
Версия формата : Version 2
Размер файла : 5,19 Гбайт
Продолжительность : 1 ч. 38 м.
Режим общего битрейта : Постоянный
Общий поток : 7 564 Кбит/сек
Программа кодирования : libmatroska 1.4.1
Библиотека кодирования : SolveigMM Matroska Muxer Version 1.0.1904.23
Видео
Идентификатор : 1
Формат : AVC
Формат/Информация : Advanced Video Codec
Профиль формата : High@L4.1
Настройки формата : CABAC / 4 Ref Frames
Параметр CABAC формата : Да
Параметр RefFrames формата : 4 кадра
Идентификатор кодека : V_MPEG4/ISO/AVC
Продолжительность : 1 ч. 38 м.
Вид битрейта : Постоянный
Битрейт : 7 029 Кбит/сек
Номинальный битрейт : 8 000 Кбит/сек
Ширина : 1 920 пикселей
Высота : 804 пикселя
Соотношение сторон : 2,40:1
Режим частоты кадров : Постоянный
Частота кадров : 23,976 (24000/1001) кадра/сек
Стандарт вещания : Component
Цветовое пространство : YUV
Субдискретизация насыщенности : 4:2:0
Битовая глубина : 8 бит
Тип развёртки : Прогрессивная
Бит/(Пиксели*Кадры) : 0.190
Размер потока : 4,82 Гбайт (93%)
Default : Нет
Forced : Нет
Цветовой диапазон : Limited
Основные цвета : BT.709
Характеристики трансфера : BT.709
Коэффициенты матрицы : BT.709
Аудио
Идентификатор : 2
Формат : AC-3
Формат/Информация : Audio Coding 3
Коммерческое название : Dolby Digital
Идентификатор кодека : A_AC3
Продолжительность : 1 ч. 38 м.
Вид битрейта : Постоянный
Битрейт : 384 Кбит/сек
Каналы : 2 канала
Channel layout : L R
Частота : 48,0 КГц
Частота кадров : 31,250 кадров/сек (1536 SPF)
Метод сжатия : С потерями
Размер потока : 270 Мбайт (5%)
Язык : Russian
Service kind : Complete Main
Default : Нет
Forced : Нет
Скриншоты: Все одноименные релизы в КлубеВремя раздачи: 24/7 (до 10-ти скачавших)
[Профиль] [ЛС]
Показать сообщения:    
Ответить на тему

Текущее время: 28-Фев 22:32

Часовой пояс: UTC ± 0



Вы не можете начинать темы
Вы не можете отвечать на сообщения
Вы не можете редактировать свои сообщения
Вы не можете удалять свои сообщения
Вы не можете голосовать в опросах
Вы не можете прикреплять файлы к сообщениям
Вы не можете скачивать файлы

[  Время выполнения: 0,036 сек  |  MySQL: 0,003 сек (9%) · 3 запр.  |  GZIP выкл  |  Память: 422,29 KB / 1,72 MB / 1,32 MB  |  Лимит: 10 11 14  ]