Подвал / Crawlspace (2022) WEB-DLRip [H.264/1080p-LQ] [MVO, AD]

Ответить на тему
 
Автор Сообщение

admin ®

Пол: Не указан

Стаж: 4 месяца 27 дня

Сообщений: 10110

Создавать темы 30-Янв-2024 15:34

[Цитировать]

Подвал / Crawlspace (2022) WEB-DLRip [H.264/1080p-LQ] - Производство: США / SP Media Group, Wonder Street
Жанр: триллер
Режиссер: Л. Густаво Купер
Продюсер: Скотт Кэрол, Стивен Пол, Алехандро Бругуес
Актеры: Генри Томас, Брэдли Страйкер, С. Эрнст Харт, Дженнифер Робертсон, Оливия Тейлор Дадли, Карлос Джо Коста, Кэтрин Лок Хэггквист, Колин Декер, Флетчер Донован, Чарльз Джармен
Описание:
Став свидетелем жестокого убийства, Роберт прячется в подвале, пока убийцы заняты поисками спрятанных в доме денег. По мере того, как преступники приближаются к нему, мужчина задается вопросом: станет ли этот подвал его гробницей или полем боя за свою жизнь?
Рейтинг MPAA: R (лицам до 17 лет обязательно присутствие взрослого)
Дата мировой премьеры: 31 марта 2022
Релиз от: Anrif
Продолжительность: 01:29:14
Качество видео: WEB-DLRip (1080p)
Перевод: Многоголосый любительский (AlphaProject)
Язык озвучки: Русский
Субтитры: Отсутствуют
Реклама: Присутствует баннер!
Видео: AVC/H.264, 1918x816, ~6250 kbps
Аудио: AC-3, 2 ch, 192 kbps

MediaInfo:

Общее
Уникальный идентификатор : 226391732227322664478014081752822830453 (0xAA51762D1C41C72B8B4E1F0EC889D575)
Полное имя : F:\[Anf].Crawlspace.(2022).WEB-DLRip.(1O8Op-LQ).mkv
Формат : Matroska
Версия формата : Version 4
Размер файла : 4,02 Гбайт
Продолжительность : 1 ч. 29 м.
Режим общего битрейта : Постоянный
Общий поток : 6 444 Кбит/сек
Название фильма : Подвал / Crawlspace...(2022)
Дата кодирования : UTC 2022-06-15 20:42:40
Программа кодирования : mkvmerge v8.3.0 ('Over the Horizon') 64bit
Библиотека кодирования : libebml v1.3.1 + libmatroska v1.4.2
Обложка : Yes
Attachments : cover.jpg
Видео
Идентификатор : 1
Формат : AVC
Формат/Информация : Advanced Video Codec
Профиль формата : High@L4.1
Настройки формата : CABAC / 4 Ref Frames
Параметр CABAC формата : Да
Параметр RefFrames формата : 4 кадра
Идентификатор кодека : V_MPEG4/ISO/AVC
Продолжительность : 1 ч. 29 м.
Вид битрейта : Постоянный
Битрейт : 6 250 Кбит/сек
Номинальный битрейт : 7 000 Кбит/сек
Ширина : 1 918 пикселей
Высота : 816 пикселей
Соотношение сторон : 2,35:1
Режим частоты кадров : Постоянный
Частота кадров : 23,976 (24000/1001) кадра/сек
Стандарт вещания : Component
Цветовое пространство : YUV
Субдискретизация насыщенности : 4:2:0
Битовая глубина : 8 бит
Тип развёртки : Прогрессивная
Бит/(Пиксели*Кадры) : 0.167
Размер потока : 3,90 Гбайт (97%)
Заголовок : -=Anrif=-
Библиотека кодирования : x264 core 155
Настройки программы : cabac=1 / ref=4 / deblock=1:0:0 / analyse=0x3:0x3 / me=dia / subme=1 / psy=1 / psy_rd=1.00:0.00 / mixed_ref=0 / me_range=16 / chroma_me=1 / trellis=0 / 8x8dct=1 / cqm=1 / deadzone=21,11 / fast_pskip=1 / chroma_qp_offset=0 / threads=25 / lookahead_threads=4 / sliced_threads=0 / slices=1 / nr=0 / decimate=1 / interlaced=0 / minigop=0 / stitchable=1 / constrained_intra=0 / bframes=2 / b_pyramid=0 / b_adapt=0 / b_bias=0 / direct=1 / weightb=1 / open_gop=1 / weightp=0 / keyint=240 / keyint_min=23 / scenecut=40 / intra_refresh=0 / rc_lookahead=0 / rc=cbr / mbtree=0 / bitrate=7000 / ratetol=1.0 / qcomp=0.60 / qpmin=1 / qpmax=69 / qpstep=4 / vbv_maxrate=7000 / vbv_bufsize=7000 / nal_hrd=cbr / filler=1 / ip_ratio=1.40 / pb_ratio=1.30 / aq=1:1.00
Язык : English
Default : Да
Forced : Да
Цветовой диапазон : Limited
Основные цвета : BT.709
Характеристики трансфера : BT.709
Коэффициенты матрицы : BT.709
Аудио
Идентификатор : 2
Формат : AC-3
Формат/Информация : Audio Coding 3
Коммерческое название : Dolby Digital
Идентификатор кодека : A_AC3
Продолжительность : 1 ч. 29 м.
Вид битрейта : Постоянный
Битрейт : 192 Кбит/сек
Каналы : 2 канала
Channel layout : L R
Частота : 48,0 КГц
Частота кадров : 31,250 кадров/сек (1536 SPF)
Метод сжатия : С потерями
Размер потока : 123 Мбайт (3%)
Заголовок : MVO [AlphaProject]
Язык : Russian
Service kind : Complete Main
Default : Да
Forced : Да
Скриншоты: Все одноименные релизы в Клубе Время раздачи: с 18:00 до 24:00 (до первых 3-5 скачавших)
[Профиль] [ЛС]
Показать сообщения:    
Ответить на тему

Текущее время: 25-Фев 19:31

Часовой пояс: UTC ± 0



Вы не можете начинать темы
Вы не можете отвечать на сообщения
Вы не можете редактировать свои сообщения
Вы не можете удалять свои сообщения
Вы не можете голосовать в опросах
Вы не можете прикреплять файлы к сообщениям
Вы не можете скачивать файлы

[  Время выполнения: 0,027 сек  |  MySQL: 0,003 сек (11%) · 3 запр.  |  GZIP выкл  |  Память: 422,29 KB / 1,72 MB / 1,34 MB  |  Лимит: 10 10 12  ]