Доула / Doula (2022) WEB-DLRip [H.264/1080p-LQ] [MVO, AD]

Ответить на тему
 
Автор Сообщение

admin ®

Пол: Не указан

Стаж: 5 месяца 1 день

Сообщений: 10110

Создавать темы 30-Янв-2024 15:33

[Цитировать]

Доула / Doula (2022) WEB-DLRip [H.264/1080p-LQ] - Производство: США / Vacation Theory, Barry Linen Motion Pictures
Жанр: комедия
Режиссер: Шерил Николс
Продюсер: Крис Пайн, Анабелла Касанова, Йен Готлер
Актеры: Тройэн Эвери Беллисарио, Аррон Шивер, Уилл Гринберг, Роберт Бэйкер, Энн Ги Бёрд, Соломон Джорджо, Miles Glanville, Nadav Heyman, Уилл Яновиц, Sean Kazarian
Описание:
Супружеская пара из Лос-Анджелеса долго не могла зачать ребенка, но как только они увидели долгожданные две полоски на тесте для определения беременности, их счастью не было предела. Ближе к родам пара стала беспокоиться о акушерке, ведь найти хорошего доктора, который сможет принять роды — не просто. За несколько месяцев до появления на свет малыша, акушерка умерла и теперь беременной женщине и ее мужу предстоит нанять сына погибшей женщины в качестве Доулы…
Дата мировой премьеры: 20 апреля 2022
Релиз от: Anrif
Продолжительность: 01:43:38
Качество видео: WEB-DLRip (1080p)
Перевод: Mногоголосый закадровый (Синема УС)
Язык озвучки: Русский
Субтитры: Отсутствуют
Реклама: Присутствует баннер!
Видео: AVC/H.264, 1908х1024, ~7000 kbps
Аудио: AС-3, 2 ch, 192 kbps

MediaInfo:

Общее
Уникальный идентификатор : 208461126521377838050152067216215825520 (0x9CD4270F896785F48C3ED25506CEDC70)
Полное имя : F:\[Anf].Doula.(2022).WEB-DLRip.[1080p-LQ].mkv
Формат : Matroska
Версия формата : Version 4
Размер файла : 5,03 Гбайт
Продолжительность : 1 ч. 43 м.
Режим общего битрейта : Постоянный
Общий поток : 6 948 Кбит/сек
Название фильма : Доула / Doula..(2022)
Дата кодирования : UTC 2022-06-22 19:37:53
Программа кодирования : mkvmerge v8.3.0 ('Over the Horizon') 64bit
Библиотека кодирования : libebml v1.3.1 + libmatroska v1.4.2
Обложка : Yes
Attachments : cover.jpg
Видео
Идентификатор : 1
Формат : AVC
Формат/Информация : Advanced Video Codec
Профиль формата : High@L4.1
Настройки формата : CABAC / 4 Ref Frames
Параметр CABAC формата : Да
Параметр RefFrames формата : 4 кадра
Идентификатор кодека : V_MPEG4/ISO/AVC
Продолжительность : 1 ч. 43 м.
Вид битрейта : Постоянный
Битрейт : 7 000 Кбит/сек
Ширина : 1 908 пикселей
Высота : 1 024 пикселя
Соотношение сторон : 1,85:1
Режим частоты кадров : Постоянный
Частота кадров : 23,976 (24000/1001) кадра/сек
Стандарт вещания : Component
Цветовое пространство : YUV
Субдискретизация насыщенности : 4:2:0
Битовая глубина : 8 бит
Тип развёртки : Прогрессивная
Бит/(Пиксели*Кадры) : 0.149
Размер потока : 4,89 Гбайт (97%)
Заголовок : =-Anrif=-
Язык : English
Default : Да
Forced : Да
Цветовой диапазон : Limited
Основные цвета : BT.709
Характеристики трансфера : BT.709
Коэффициенты матрицы : BT.709
Аудио
Идентификатор : 2
Формат : AC-3
Формат/Информация : Audio Coding 3
Коммерческое название : Dolby Digital
Идентификатор кодека : A_AC3
Продолжительность : 1 ч. 43 м.
Вид битрейта : Постоянный
Битрейт : 192 Кбит/сек
Каналы : 2 канала
Channel layout : L R
Частота : 48,0 КГц
Частота кадров : 31,250 кадров/сек (1536 SPF)
Метод сжатия : С потерями
Размер потока : 142 Мбайт (3%)
Заголовок : MVO [Синема УС]
Язык : Russian
Service kind : Complete Main
Default : Да
Forced : Да
Скриншоты: Все одноименные релизы в Клубе Время раздачи: с 18:00 до 24:00 (до первых 3-5 скачавших)
[Профиль] [ЛС]
Показать сообщения:    
Ответить на тему

Текущее время: 29-Фев 11:20

Часовой пояс: UTC ± 0



Вы не можете начинать темы
Вы не можете отвечать на сообщения
Вы не можете редактировать свои сообщения
Вы не можете удалять свои сообщения
Вы не можете голосовать в опросах
Вы не можете прикреплять файлы к сообщениям
Вы не можете скачивать файлы

[  Время выполнения: 0,033 сек  |  MySQL: 0,003 сек (9%) · 5 запр.  |  GZIP выкл  |  Память: 422,29 KB / 1,72 MB / 1,32 MB  |  Лимит: 12 11 11  ]