Экстрасенс. Дело Софи / They Live in the Grey (2022) WEB-DLRip [Line, AD]

Ответить на тему
 
Автор Сообщение

admin ®

Пол: Не указан

Стаж: 6 месяца 22 дня

Сообщений: 11520

Создавать темы 30-Янв-2024 15:33

[Цитировать]

Экстрасенс. Дело Софи / They Live in the Grey (2022) WEB-DLRip - Производство: США / STANDOFF Pictures, Whiskey Stream Productions
Жанр: ужасы, мистика
Режиссер: Абель Ван, Берли Ван
Актеры: Мишель Крусик, Кен Кирби, Мэдлин Грэйс, Джей Эр Касия, Эллен Роу, Мерседес Мэннинг, Уилли С. Хоси, Одри Мур, Джейден Трэн, Кэми Штурм
Описание:
Клэр обладает экстрасенсорными способностями. Когда она берется за новое дело, где опасность угрожает восьмилетней Софи, то становится свидетелем паранормальных явлений. Решая помочь Софи и используя свой дар, Клэр принимает гнев демонов на себя, подвергая опасности уже собственную семью.
Возраст: 16+ (зрителям, достигшим 16 лет)
Дата мировой премьеры: 17 февраля 2022, Shudder
Дата российской премьеры: 16 июня 2022, «Экспонента»
Продолжительность: 02:04:40
Качество видео: WEB-DLRip
Перевод: Дублированный (Чистый звук)
Язык озвучки: Русский
Субтитры: Отсутствуют
Реклама: Присутствуют вставки аудио и видео рекламы + баннер
Видео: Xvid, 720х304, ~1926 kbps
Аудио: AC3, 2 ch, 384 kbps

MediaInfo:

Общее
Полное имя : D:\ЗАКАЧКИ с ТОРРЕНТОВ\Экстрасенс.Дело.Софи.2022.Дчз.WEB-DLRip.avi
Формат : AVI
Формат/Информация : Audio Video Interleave
Профиль формата : OpenDML
Размер файла : 2,02 Гбайт
Продолжительность : 2 ч. 4 м.
Общий поток : 2 322 Кбит/сек
Программа кодирования : VirtualDubMod 1.5.10.3 | www.virtualdub-fr.org || (build 2550/release)
Библиотека кодирования : VirtualDubMod build 2550/release
Видео
Идентификатор : 0
Формат : MPEG-4 Visual
Профиль формата : Advanced Simple@L5
Настройки формата : BVOP2 / Custom Matrix
Параметр BVOP формата : 2
Параметр QPel формата : Нет
Параметр GMC формата : Без точки перехода
Параметр матрицы формата : Выборочная
Идентификатор кодека : XVID
Идентификатор кодека/Подсказка : XviD
Продолжительность : 2 ч. 4 м.
Битрейт : 1 926 Кбит/сек
Ширина : 720 пикселей
Высота : 304 пикселя
Соотношение сторон : 2,35:1
Частота кадров : 23,976 (24000/1001) кадра/сек
Цветовое пространство : YUV
Субдискретизация насыщенности : 4:2:0
Битовая глубина : 8 бит
Тип развёртки : Прогрессивная
Метод сжатия : С потерями
Бит/(Пиксели*Кадры) : 0.367
Размер потока : 1,68 Гбайт (83%)
Библиотека кодирования : XviD 1.2.1 (UTC 2008-12-04)
Аудио
Идентификатор : 1
Формат : AC-3
Формат/Информация : Audio Coding 3
Коммерческое название : Dolby Digital
Идентификатор кодека : 2000
Продолжительность : 2 ч. 4 м.
Вид битрейта : Постоянный
Битрейт : 384 Кбит/сек
Каналы : 2 канала
Channel layout : L R
Частота : 48,0 КГц
Частота кадров : 31,250 кадров/сек (1536 SPF)
Метод сжатия : С потерями
Размер потока : 342 Мбайт (17%)
Выравнивание : Разделение по промежуткам
Продолжительность промежутка : 42 мс. (1,00 видеокадр)
Время предзагрузки промежутка : 500 мс.
Service kind : Complete Main
Скриншоты:
Все одноименные релизы в КлубеВремя раздачи: 24/7 (минимум до появления первых 3-5 скачавших)
[Профиль] [ЛС]
Показать сообщения:    
Ответить на тему

Текущее время: 20-Апр 19:51

Часовой пояс: UTC ± 0



Вы не можете начинать темы
Вы не можете отвечать на сообщения
Вы не можете редактировать свои сообщения
Вы не можете удалять свои сообщения
Вы не можете голосовать в опросах
Вы не можете прикреплять файлы к сообщениям
Вы не можете скачивать файлы

[  Время выполнения: 0,041 сек  |  MySQL: 0,003 сек (7%) · 3 запр.  |  GZIP выкл  |  Память: 422,29 KB / 1,74 MB / 1,34 MB  |  Лимит: 4 4 6  ]