Джек, не зевай! / Jack Be Nimble (2022) WEB-DLRip [H.264/720p-LQ] [MVO] [AD]

Ответить на тему
 
Автор Сообщение

admin ®

Пол: Не указан

Стаж: 4 месяца 27 дня

Сообщений: 10110

Создавать темы 30-Янв-2024 15:32

[Цитировать]

Джек, не зевай! / Jack Be Nimble (2022) WEB-DLRip [H.264/720p-LQ]- Производство: США / Furious Nerd Productions
Жанр: комедия
Режиссер: Steve Wollett
Актеры: Бай Лин, Вернон Уэллс, Шон С. Филлипс, Эмбер Мартинес, Джули Энн Прескотт, Райан Томас, Paula Black, Heather Harlow, Брент Гаскинс, Bill Houskeeper
Описание:
Группа игроков в настольные игры, живущих в доме престарелых, сталкивается лицом к лицу со своей уязвимостью, поскольку один из них подозревает, что в учреждении орудует демон, который скоро придёт по их души.
Дата мировой премьеры: 15 января 2022
Продолжительность: 01:19:13
Качество видео: WEB-DLRip
Перевод: Многоголосый профессиональный (Синема УС)
Субтитры: Отсутствуют
Реклама: Присутствует баннер.
Видео: AVC/H.264, 1280x536, ~4423 Kbps
Аудио: AC-3, 2 ch, 256 Kbps

MediaInfo:

Общее
Полное имя : D:\NNM\Джек, не зевай\Jackю.Be.Nimble.2022.WEB-DLRip.720p-LQ.mkv
Формат : Matroska
Версия формата : Version 2
Размер файла : 2,64 Гбайт
Продолжительность : 1 ч. 19 м.
Режим общего битрейта : Постоянный
Общий поток : 4 774 Кбит/сек
Программа кодирования : libmatroska 1.4.1
Библиотека кодирования : SolveigMM Matroska Muxer Version 1.0.1904.23
Видео
Идентификатор : 1
Формат : AVC
Формат/Информация : Advanced Video Codec
Профиль формата : High@L4.1
Настройки формата : CABAC / 4 Ref Frames
Параметр CABAC формата : Да
Параметр RefFrames формата : 4 кадра
Идентификатор кодека : V_MPEG4/ISO/AVC
Продолжительность : 1 ч. 19 м.
Вид битрейта : Постоянный
Битрейт : 4 423 Кбит/сек
Номинальный битрейт : 5 000 Кбит/сек
Ширина : 1 280 пикселей
Высота : 536 пикселей
Соотношение сторон : 2,40:1
Режим частоты кадров : Постоянный
Частота кадров : 23,976 (24000/1001) кадра/сек
Стандарт вещания : Component
Цветовое пространство : YUV
Субдискретизация насыщенности : 4:2:0
Битовая глубина : 8 бит
Тип развёртки : Прогрессивная
Бит/(Пиксели*Кадры) : 0.269
Размер потока : 2,45 Гбайт (93%)
Default : Нет
Forced : Нет
Цветовой диапазон : Limited
Основные цвета : BT.709
Характеристики трансфера : BT.709
Коэффициенты матрицы : BT.709
Аудио
Идентификатор : 2
Формат : AC-3
Формат/Информация : Audio Coding 3
Коммерческое название : Dolby Digital
Идентификатор кодека : A_AC3
Продолжительность : 1 ч. 19 м.
Вид битрейта : Постоянный
Битрейт : 256 Кбит/сек
Каналы : 2 канала
Channel layout : L R
Частота : 48,0 КГц
Частота кадров : 31,250 кадров/сек (1536 SPF)
Метод сжатия : С потерями
Размер потока : 145 Мбайт (5%)
Язык : Russian
Service kind : Complete Main
Default : Нет
Forced : Нет
Скриншоты: Все одноименные релизы в КлубеВремя раздачи: 24/7 (до 10-ти скачавших)
[Профиль] [ЛС]
Показать сообщения:    
Ответить на тему

Текущее время: 25-Фев 22:02

Часовой пояс: UTC ± 0



Вы не можете начинать темы
Вы не можете отвечать на сообщения
Вы не можете редактировать свои сообщения
Вы не можете удалять свои сообщения
Вы не можете голосовать в опросах
Вы не можете прикреплять файлы к сообщениям
Вы не можете скачивать файлы

[  Время выполнения: 0,031 сек  |  MySQL: 0,003 сек (8%) · 3 запр.  |  GZIP выкл  |  Память: 422,29 KB / 1,72 MB / 1,32 MB  |  Лимит: 19 20 18  ]