Неизбежная смерть краба / La Inevitable Muerte del Cangrejo (The Inevitable Death of the Crab) (2022) WEB-DLRip [H.264/720p-LQ] [MVO] [AD]

Ответить на тему
 
Автор Сообщение

admin ®

Пол: Не указан

Стаж: 4 месяца 27 дня

Сообщений: 10110

Создавать темы 30-Янв-2024 15:32

[Цитировать]

Неизбежная смерть краба / La Inevitable Muerte del Cangrejo (The Inevitable Death of the Crab) (2022) WEB-DLRip [H.264/720p-LQ]- Производство: Мексика / Azmun Films
Жанр: триллер, драма
Режиссер: Ahcitz Azcona
Актеры: Costanza Andrade, Carlos Hoeflich, Ahcitz Azcona, Хуан Мануэль Аскона, Ricardo Niño, Jesus Hernandez, Ixchel Azcona, Юририа Мунгиа
Описание:
Успешный бизнесмен Карлос Барба и его сын Сантьяго получают звонок с вымогательством денег от профессиональных преступников, но не воспринимают это всерьез и списывают это на работу мошенников. Однако цепочка трагичных событий дает им понять, что им не стоит ждать помощи от политической системы, захваченной коррупцией.
Дата мировой премьеры: 29 января 2022
Продолжительность: 01:11:27
Качество видео: WEB-DLRip
Перевод: Многоголосый профессиональный (Синема УС)
Субтитры: Английские (хардсаб)
Реклама: Присутствует баннер.
Видео: AVC/H.264, 1280x692, ~4048 Kbps
Аудио: AC-3, 2 ch, 256 Kbps

MediaInfo:

Общее
Полное имя : D:\NNM\Неизбежная смерть краба\La.Inevitable.Muerte.del.Cangrejo.2022.WEBRip.720p-LQ.mkv
Формат : Matroska
Версия формата : Version 2
Размер файла : 2,19 Гбайт
Продолжительность : 1 ч. 11 м.
Режим общего битрейта : Постоянный
Общий поток : 4 391 Кбит/сек
Программа кодирования : libmatroska 1.4.1
Библиотека кодирования : SolveigMM Matroska Muxer Version 1.0.1904.23
Видео
Идентификатор : 1
Формат : AVC
Формат/Информация : Advanced Video Codec
Профиль формата : High@L4.1
Настройки формата : CABAC / 4 Ref Frames
Параметр CABAC формата : Да
Параметр RefFrames формата : 4 кадра
Идентификатор кодека : V_MPEG4/ISO/AVC
Продолжительность : 1 ч. 11 м.
Вид битрейта : Постоянный
Битрейт : 4 048 Кбит/сек
Номинальный битрейт : 5 000 Кбит/сек
Ширина : 1 280 пикселей
Высота : 692 пикселя
Соотношение сторон : 1,85:1
Режим частоты кадров : Постоянный
Частота кадров : 23,976 (24000/1001) кадра/сек
Стандарт вещания : Component
Цветовое пространство : YUV
Субдискретизация насыщенности : 4:2:0
Битовая глубина : 8 бит
Тип развёртки : Прогрессивная
Бит/(Пиксели*Кадры) : 0.191
Размер потока : 2,02 Гбайт (92%)
Default : Нет
Forced : Нет
Цветовой диапазон : Limited
Основные цвета : BT.709
Характеристики трансфера : BT.709
Коэффициенты матрицы : BT.709
Аудио
Идентификатор : 2
Формат : AC-3
Формат/Информация : Audio Coding 3
Коммерческое название : Dolby Digital
Идентификатор кодека : A_AC3
Продолжительность : 1 ч. 11 м.
Вид битрейта : Постоянный
Битрейт : 256 Кбит/сек
Каналы : 2 канала
Channel layout : L R
Частота : 48,0 КГц
Частота кадров : 31,250 кадров/сек (1536 SPF)
Метод сжатия : С потерями
Размер потока : 131 Мбайт (6%)
Язык : Russian
Service kind : Complete Main
Default : Нет
Forced : Нет
Скриншоты: Все одноименные релизы в КлубеВремя раздачи: 24/7 (до 10-ти скачавших)
[Профиль] [ЛС]
Показать сообщения:    
Ответить на тему

Текущее время: 25-Фев 22:15

Часовой пояс: UTC ± 0



Вы не можете начинать темы
Вы не можете отвечать на сообщения
Вы не можете редактировать свои сообщения
Вы не можете удалять свои сообщения
Вы не можете голосовать в опросах
Вы не можете прикреплять файлы к сообщениям
Вы не можете скачивать файлы

[  Время выполнения: 0,038 сек  |  MySQL: 0,003 сек (7%) · 3 запр.  |  GZIP выкл  |  Память: 422,29 KB / 1,74 MB / 1,34 MB  |  Лимит: 12 14 16  ]