Святым тут не место / The Jesuit / There Are No Saints (2022) WEB-DLRip [H.264/1080p-LQ] [Line, AD]

Ответить на тему
 
Автор Сообщение

admin ®

Пол: Не указан

Стаж: 4 месяца 23 дня

Сообщений: 10110

Создавать темы 30-Янв-2024 15:31

[Цитировать]

Святым тут не место / There Are No Saints (2022) WEB-DLRip [H.264/1080p-LQ] - Производство: Мексика, США / Itaca Films, BN Films, Open Window Productions
Жанр: боевик, триллер, криминал
Режиссер: Альфонсо Пинеда Ульоа
Продюсер: Алекс Гарсиа, Сантьяго Гарсиа Гальван, Хосе Мартинес мл.
Актеры: Хосе Мария Яспик, Шаннин Соссамон, Пас Вега, Нил МакДонаф, Кейдрих Селлати, Томми Флэнаган, Рон Перлман, Тим Рот, Джон Гилберт, Брайан Глэнни
Описание:
Молчаливый наемный убийца по прозвищу Иезуит после выхода из тюрьмы жестоко мстит за смерть жены и похищение сына.
Возраст: 18+ (зрителям, достигшим 18 лет. запрещено для детей)
Рейтинг MPAA: R (лицам до 17 лет обязательно присутствие взрослого)
Дата мировой премьеры: 27 мая 2022
Дата российской премьеры: 27 мая 2022, «Кинологистика»
Продолжительность: 01:38:46
Качество видео: WEB-DLRip
Перевод: Дублированный (Чистый звук)
Язык озвучки: Русский
Субтитры: Русский (хардсаб)
Реклама: Присутствует баннер!
Видео: AVC/H.264, 1920x798, 8000 kbps
Аудио: AC-3, 2 ch, 224 kbps

MediaInfo:

Общее
Уникальный идентификатор : 174341243404113422796830433891039304582 (0x8328E6F16D0F096FAFF7E191C487DB86)
Полное имя : F:\[Anf].There.Are.No.Saints.(2022).WEB-DLRip.[1080p-LQ].mkv
Формат : Matroska
Версия формата : Version 4
Размер файла : 5,54 Гбайт
Продолжительность : 1 ч. 38 м.
Режим общего битрейта : Постоянный
Общий поток : 8 025 Кбит/сек
Название фильма : Святым тут не место / There Are No Saints... (2022)
Дата кодирования : UTC 2022-05-29 14:02:54
Программа кодирования : mkvmerge v8.3.0 ('Over the Horizon') 64bit
Библиотека кодирования : libebml v1.3.1 + libmatroska v1.4.2
Обложка : Yes
Attachments : cover.jpg
Видео
Идентификатор : 1
Формат : AVC
Формат/Информация : Advanced Video Codec
Профиль формата : High@L4.1
Настройки формата : CABAC / 4 Ref Frames
Параметр CABAC формата : Да
Параметр RefFrames формата : 4 кадра
Идентификатор кодека : V_MPEG4/ISO/AVC
Продолжительность : 1 ч. 38 м.
Вид битрейта : Постоянный
Битрейт : 8 000 Кбит/сек
Ширина : 1 920 пикселей
Высота : 798 пикселей
Соотношение сторон : 2,40:1
Режим частоты кадров : Постоянный
Частота кадров : 23,976 (24000/1001) кадра/сек
Стандарт вещания : Component
Цветовое пространство : YUV
Субдискретизация насыщенности : 4:2:0
Битовая глубина : 8 бит
Тип развёртки : Прогрессивная
Бит/(Пиксели*Кадры) : 0.218
Размер потока : 5,38 Гбайт (97%)
Заголовок : -=Anrif=-
Язык : English
Default : Да
Forced : Да
Цветовой диапазон : Limited
Основные цвета : BT.709
Характеристики трансфера : BT.709
Коэффициенты матрицы : BT.709
Аудио
Идентификатор : 2
Формат : AC-3
Формат/Информация : Audio Coding 3
Коммерческое название : Dolby Digital
Идентификатор кодека : A_AC3
Продолжительность : 1 ч. 38 м.
Вид битрейта : Постоянный
Битрейт : 224 Кбит/сек
Каналы : 2 канала
Channel layout : L R
Частота : 48,0 КГц
Частота кадров : 31,250 кадров/сек (1536 SPF)
Метод сжатия : С потерями
Размер потока : 158 Мбайт (3%)
Заголовок : DUB [Line]
Язык : Russian
Service kind : Complete Main
Default : Да
Forced : Да
Скриншоты: Все одноименные релизы в Клубе Время раздачи: с 18:00 до 24:00 (до первых 3-5 скачавших)
[Профиль] [ЛС]
Показать сообщения:    
Ответить на тему

Текущее время: 22-Фев 01:03

Часовой пояс: UTC ± 0



Вы не можете начинать темы
Вы не можете отвечать на сообщения
Вы не можете редактировать свои сообщения
Вы не можете удалять свои сообщения
Вы не можете голосовать в опросах
Вы не можете прикреплять файлы к сообщениям
Вы не можете скачивать файлы

[  Время выполнения: 0,030 сек  |  MySQL: 0,003 сек (9%) · 3 запр.  |  GZIP выкл  |  Память: 421,85 KB / 1,72 MB / 1,32 MB  |  Лимит: 19 20 18  ]