Святым тут не место / The Jesuit / There Are No Saints (2022) WEB-DLRip [Line, AD]

Ответить на тему
 
Автор Сообщение

admin ®

Пол: Не указан

Стаж: 4 месяца 23 дня

Сообщений: 10110

Создавать темы 30-Янв-2024 15:31

[Цитировать]

Святым тут не место / There Are No Saints (2022) WEB-DLRip - Производство: Мексика, США / Itaca Films, BN Films, Open Window Productions
Жанр: боевик, триллер, криминал
Режиссер: Альфонсо Пинеда Ульоа
Продюсер: Алекс Гарсиа, Сантьяго Гарсиа Гальван, Хосе Мартинес мл.
Актеры: Хосе Мария Яспик, Шаннин Соссамон, Пас Вега, Нил МакДонаф, Кейдрих Селлати, Томми Флэнаган, Рон Перлман, Тим Рот, Джон Гилберт, Брайан Глэнни
Описание:
Молчаливый наемный убийца по прозвищу Иезуит после выхода из тюрьмы жестоко мстит за смерть жены и похищение сына.
Возраст: 18+ (зрителям, достигшим 18 лет. запрещено для детей)
Рейтинг MPAA: R (лицам до 17 лет обязательно присутствие взрослого)
Дата мировой премьеры: 27 мая 2022
Дата российской премьеры: 27 мая 2022, «Кинологистика»
Продолжительность: 01:38:46
Качество видео: WEB-DLRip
Перевод: Дублированный (Чистый звук)
Язык озвучки: Русский
Субтитры: Русский (хардсаб)
Реклама: Присутствует баннер!
Видео: XviD, 720x296, 2139 kbps
Аудио: AC-3, 2 ch, 192 kbps

MediaInfo:

Общее
Полное имя : F:\[Anf].There.Are.No.Saints.(2022).WEB-DLRip.avi
Формат : AVI
Формат/Информация : Audio Video Interleave
Размер файла : 1,62 Гбайт
Продолжительность : 1 ч. 38 м.
Общий поток : 2 341 Кбит/сек
Название фильма : Святым тут не место / The Jesuit / There Are No Saints
Режиссёр : Альфонсо Пинеда Ульоа
Жанр : боевик, триллер, криминал
Тема : WEB-DLRip
Дата записи : 2022
Программа кодирования : VirtualDubMod 1.5.10.3 | www.virtualdub-fr.org || (build 2550/release)
Библиотека кодирования : VirtualDubMod build 2550/release
Авторское право : Itaca Films, BN Films, Open Window Productions
Примечание : RIP BY -=ANRIF=-
Видео
Идентификатор : 0
Формат : MPEG-4 Visual
Профиль формата : Advanced Simple@L5
Настройки формата : BVOP1
Параметр BVOP формата : 1
Параметр QPel формата : Нет
Параметр GMC формата : Без точки перехода
Параметр матрицы формата : Default (MPEG)
Идентификатор кодека : XVID
Идентификатор кодека/Подсказка : XviD
Продолжительность : 1 ч. 38 м.
Битрейт : 2 139 Кбит/сек
Ширина : 720 пикселей
Высота : 296 пикселей
Соотношение сторон : 2,40:1
Частота кадров : 23,976 (24000/1001) кадра/сек
Цветовое пространство : YUV
Субдискретизация насыщенности : 4:2:0
Битовая глубина : 8 бит
Тип развёртки : Прогрессивная
Метод сжатия : С потерями
Бит/(Пиксели*Кадры) : 0.419
Размер потока : 1,48 Гбайт (91%)
Библиотека кодирования : XviD 73
Аудио
Идентификатор : 1
Формат : AC-3
Формат/Информация : Audio Coding 3
Коммерческое название : Dolby Digital
Идентификатор кодека : 2000
Продолжительность : 1 ч. 38 м.
Вид битрейта : Постоянный
Битрейт : 192 Кбит/сек
Каналы : 2 канала
Channel layout : L R
Частота : 48,0 КГц
Частота кадров : 31,250 кадров/сек (1536 SPF)
Метод сжатия : С потерями
Размер потока : 136 Мбайт (8%)
Выравнивание : Разделение по промежуткам
Продолжительность промежутка : 42 мс. (1,00 видеокадр)
Время предзагрузки промежутка : 500 мс.
Заголовок : Русский DUB [Line]
Service kind : Complete Main
Скриншоты: Все одноименные релизы в Клубе Время раздачи: с 18:00 до 24:00 (до первых 3-5 скачавших)
[Профиль] [ЛС]
Показать сообщения:    
Ответить на тему

Текущее время: 22-Фев 01:16

Часовой пояс: UTC ± 0



Вы не можете начинать темы
Вы не можете отвечать на сообщения
Вы не можете редактировать свои сообщения
Вы не можете удалять свои сообщения
Вы не можете голосовать в опросах
Вы не можете прикреплять файлы к сообщениям
Вы не можете скачивать файлы

[  Время выполнения: 0,027 сек  |  MySQL: 0,002 сек (9%) · 3 запр.  |  GZIP выкл  |  Память: 421,85 KB / 1,72 MB / 1,32 MB  |  Лимит: 19 19 19  ]