Аврора Тигарден: дом с привидением / Aurora Teagarden Mysteries: Haunted by Murder (2022) HDTVRip [H.264/720p-LQ] [MVO, AD]

Ответить на тему
 
Автор Сообщение

admin ®

Пол: Не указан

Стаж: 4 месяца 27 дня

Сообщений: 10110

Создавать темы 30-Янв-2024 15:30

[Цитировать]

Аврора Тигарден: дом с привидением / Aurora Teagarden Mysteries: Haunted by Murder (2022) HDTVRip [H.264/720p-LQ] - Производство: США
Жанр: криминал, детектив
Режиссер: Мартин Вуд
Актеры: Кендес Камерон Буре, Найолл Мэттер, Лекса Дойг, Питер Бенсон, Миранда Фригон, Дилан Слоун, Элли Харви, Мэрилу Хеннер, Джулия Бенсон, Наташа Буре
Описание:
На этот раз Аврора Тигарден ведет расследование в доме с привидениями, в котором она в юности со своей подругой Салли обнаружила тело мертвого человека.
Дата мировой премьеры: 20 февраля 2022
Продолжительность: 01:24:09
Качество видео: HDTVRip
Перевод: Многоголосый закадровый (Синема УС)
Язык озвучки: Русский
Субтитры: Отсутствуют
Реклама: Присутствует текстовые вставки, баннер
Видео: AVC/H.264, 1280x720 (16:9), ~4365 Kbps
Аудио: AC3, 2 ch, 384 Kbps

MediaInfo:

Общее
Уникальный идентификатор : 165350813725439837648524633740321601679 (0x7C65688982FEE6A33707A431664DB88F)
Полное имя : F:\Aurora.Teagarden.Haunted.by.Murder.2022.mkv
Формат : Matroska
Версия формата : Version 4
Размер файла : 2,85 Гбайт
Продолжительность : 1 ч. 24 м.
Режим общего битрейта : Постоянный
Общий поток : 4 844 Кбит/сек
Программа кодирования : Lavf57.71.100
Библиотека кодирования : Lavf57.71.100
ErrorDetectionType : Per level 1
Видео
Идентификатор : 1
Формат : AVC
Формат/Информация : Advanced Video Codec
Профиль формата : High@L4.1
Настройки формата : CABAC / 4 Ref Frames
Параметр CABAC формата : Да
Параметр RefFrames формата : 4 кадра
Идентификатор кодека : V_MPEG4/ISO/AVC
Продолжительность : 1 ч. 24 м.
Вид битрейта : Постоянный
Битрейт : 4 364 Кбит/сек
Номинальный битрейт : 5 000 Кбит/сек
Ширина : 1 280 пикселей
Высота : 720 пикселей
Соотношение сторон : 16:9
Режим частоты кадров : Постоянный
Частота кадров : 23,976 (24000/1001) кадра/сек
Стандарт вещания : Component
Цветовое пространство : YUV
Субдискретизация насыщенности : 4:2:0
Битовая глубина : 8 бит
Тип развёртки : Прогрессивная
Бит/(Пиксели*Кадры) : 0.197
Размер потока : 2,57 Гбайт (90%)
Библиотека кодирования : x264 core 155
Настройки программы : cabac=1 / ref=4 / deblock=1:0:0 / analyse=0x3:0x3 / me=dia / subme=1 / psy=1 / psy_rd=1.00:0.00 / mixed_ref=0 / me_range=16 / chroma_me=1 / trellis=0 / 8x8dct=1 / cqm=1 / deadzone=21,11 / fast_pskip=1 / chroma_qp_offset=0 / threads=22 / lookahead_threads=3 / sliced_threads=0 / slices=1 / nr=0 / decimate=1 / interlaced=0 / minigop=0 / stitchable=1 / constrained_intra=0 / bframes=2 / b_pyramid=0 / b_adapt=0 / b_bias=0 / direct=1 / weightb=1 / open_gop=1 / weightp=0 / keyint=240 / keyint_min=23 / scenecut=40 / intra_refresh=0 / rc_lookahead=0 / rc=cbr / mbtree=0 / bitrate=5000 / ratetol=1.0 / qcomp=0.60 / qpmin=1 / qpmax=69 / qpstep=4 / vbv_maxrate=5000 / vbv_bufsize=5000 / nal_hrd=cbr / filler=1 / ip_ratio=1.40 / pb_ratio=1.30 / aq=1:1.00
Default : Да
Forced : Нет
Цветовой диапазон : Limited
Основные цвета : BT.709
Характеристики трансфера : BT.709
Коэффициенты матрицы : BT.709
Аудио
Идентификатор : 2
Формат : AC-3
Формат/Информация : Audio Coding 3
Коммерческое название : Dolby Digital
Идентификатор кодека : A_AC3
Продолжительность : 1 ч. 24 м.
Вид битрейта : Постоянный
Битрейт : 384 Кбит/сек
Каналы : 2 канала
Channel layout : L R
Частота : 48,0 КГц
Частота кадров : 31,250 кадров/сек (1536 SPF)
Метод сжатия : С потерями
Задержка видео : -42 мс.
Размер потока : 231 Мбайт (8%)
Service kind : Complete Main
Default : Да
Forced : Нет
Скриншоты:
Все одноименные релизы в КлубеВремя раздачи: 24/7 (круглосуточно) (минимум до появления первых 3-5 скачавших)
[Профиль] [ЛС]
Показать сообщения:    
Ответить на тему

Текущее время: 25-Фев 19:11

Часовой пояс: UTC ± 0



Вы не можете начинать темы
Вы не можете отвечать на сообщения
Вы не можете редактировать свои сообщения
Вы не можете удалять свои сообщения
Вы не можете голосовать в опросах
Вы не можете прикреплять файлы к сообщениям
Вы не можете скачивать файлы

[  Время выполнения: 0,044 сек  |  MySQL: 0,003 сек (8%) · 3 запр.  |  GZIP выкл  |  Память: 422,29 KB / 1,74 MB / 1,34 MB  |  Лимит: 15 17 18  ]