Пропавшая / Last Seen Alive (2022) WEBRip [H.264/1080p-LQ] [MVO] [AD]

Ответить на тему
 
Автор Сообщение

admin ®

Пол: Не указан

Стаж: 7 месяца 24 дня

Сообщений: 11520

Создавать темы 30-Янв-2024 15:29

[Цитировать]

Пропавшая / Last Seen Alive (2022) WEBRip [H.264/1080p-LQ] - Производство: США / Alienworx Productions, Aerial cinematography, G-BASE, Marc Frydman Productions, Perfection Hunter Productions
Жанр: боевик, триллер, детектив
Режиссер: Брайан Гудман
Актеры: Джерард Батлер, Джейми Александер, Расселл Хорнсби, Алекс Алифиренко мл., Эмили Бринкс, Билли Бёрнс, Дэни Детте, Робин Флетчер, Дэвид Гурул, Брайс Энтони Хеллер
Описание:
Уилл Спэнн везет свою жену, с которой они собираются разводиться, домой к её родителям. Во время остановки на заправке супруга странным образом бесследно исчезает. Уилл поднимает на уши местную полицию и вместе с родителями жены пытается найти её. Однако со временем подозрение падает на него самого.
Возраст: 16+ (зрителям, достигшим 16 лет)
Рейтинг MPAA: R (лицам до 17 лет обязательно присутствие взрослого)
Дата мировой премьеры: 12 мая 2022
Дата российской премьеры: 9 июня 2022, «Централ Партнершип»
Продолжительность: 01:33:29
Качество видео: WEBRip
Перевод: Многоголосый любительский (MUZOBOZ)
Субтитры: Отсутствуют
Реклама: Присутствует баннер!
Видео: AVC/H.264, 1918x956, ~5956 Kbps
Аудио: AC3, 2 ch, 384 Kbps

MediaInfo:

Общее
Полное имя : D:\NNM\Пропавшая\Last.Seen.Alive.2022.WEBRip.1080p-LQ.mkv
Формат : Matroska
Версия формата : Version 2
Размер файла : 4,22 Гбайт
Продолжительность : 1 ч. 33 м.
Режим общего битрейта : Постоянный
Общий поток : 6 468 Кбит/сек
Программа кодирования : libmatroska 1.4.1
Библиотека кодирования : SolveigMM Matroska Muxer Version 1.0.1904.23
Видео
Идентификатор : 1
Формат : AVC
Формат/Информация : Advanced Video Codec
Профиль формата : High@L4.1
Настройки формата : CABAC / 4 Ref Frames
Параметр CABAC формата : Да
Параметр RefFrames формата : 4 кадра
Идентификатор кодека : V_MPEG4/ISO/AVC
Продолжительность : 1 ч. 33 м.
Вид битрейта : Постоянный
Битрейт : 5 956 Кбит/сек
Номинальный битрейт : 7 000 Кбит/сек
Ширина : 1 918 пикселей
Высота : 956 пикселей
Соотношение сторон : 2,006
Режим частоты кадров : Постоянный
Частота кадров : 23,976 (24000/1001) кадра/сек
Стандарт вещания : Component
Цветовое пространство : YUV
Субдискретизация насыщенности : 4:2:0
Битовая глубина : 8 бит
Тип развёртки : Прогрессивная
Бит/(Пиксели*Кадры) : 0.135
Размер потока : 3,89 Гбайт (92%)
Default : Нет
Forced : Нет
Цветовой диапазон : Limited
Основные цвета : BT.709
Характеристики трансфера : BT.709
Коэффициенты матрицы : BT.709
Аудио
Идентификатор : 2
Формат : AC-3
Формат/Информация : Audio Coding 3
Коммерческое название : Dolby Digital
Идентификатор кодека : A_AC3
Продолжительность : 1 ч. 33 м.
Вид битрейта : Постоянный
Битрейт : 384 Кбит/сек
Каналы : 2 канала
Channel layout : L R
Частота : 48,0 КГц
Частота кадров : 31,250 кадров/сек (1536 SPF)
Метод сжатия : С потерями
Размер потока : 257 Мбайт (6%)
Язык : Russian
Service kind : Complete Main
Default : Нет
Forced : Нет
Скриншоты: Все одноименные релизы в Клубе Время раздачи: 24/7 (до 10-ти скачавших)
[Профиль] [ЛС]
Показать сообщения:    
Ответить на тему

Текущее время: 23-Май 05:55

Часовой пояс: UTC ± 0



Вы не можете начинать темы
Вы не можете отвечать на сообщения
Вы не можете редактировать свои сообщения
Вы не можете удалять свои сообщения
Вы не можете голосовать в опросах
Вы не можете прикреплять файлы к сообщениям
Вы не можете скачивать файлы

[  Время выполнения: 0,039 сек  |  MySQL: 0,003 сек (9%) · 5 запр.  |  GZIP выкл  |  Память: 422,49 KB / 1,73 MB / 1,34 MB  |  Лимит: 14 16 16  ]