Питбуль: Исход / Pitbull (2021) BDRip [H.264/1080p-LQ] [MVO]

Ответить на тему
 
Автор Сообщение

admin ®

Пол: Не указан

Стаж: 7 месяца 24 дня

Сообщений: 11520

Создавать темы 30-Янв-2024 15:28

[Цитировать]

Питбуль: Исход / Pitbull (2021) BDRip [H.264/1080p-LQ]- Производство: Польша / Canal+ Polska, Vega Investments
Жанр: боевик, триллер, драма, криминал
Режиссер: Патрик Вега
Актеры: Анджей Грабовски, Пжемыслав Блущ, Jan Blachowicz, Томаш Дедек, Себастьян Дела, Ян Хрынкевич, Justyna Karlowska, Михал Кармовский, Julia Michalewska, Анэта Заяц
Описание:
Когда от взрывного устройства на заправочной станции погибает полицейский, начальник полиции поручает это дело Гебельсу из отдела по расследованию убийств. Следствие наводит Гебельса на след преступника из вооруженной группы Першинга - производителя бомб и похитителя, стоящего за десятками нападений и более чем сотни похищений людей по всей стране. Противостояние бандита и полицейского превращается в настоящую войну на долгие годы.
Дата мировой премьеры: 9 ноября 2021
Продолжительность: 01:51:09
Качество видео: BDRip
Перевод: Многоголосый любительский (AlphaProject)
Субтитры: Отсутствуют
Реклама: Присутствует баннер.
Видео: AVC/H.264, 1920x804, ~8558 Kbps
Аудио: AC3, 2 ch, 384 Kbps

MediaInfo:

Общее
Полное имя : D:\NNM\Питбуль\Pitbull.2021.BDRip.1080p-LQ.mkv
Формат : Matroska
Версия формата : Version 2
Размер файла : 7,08 Гбайт
Продолжительность : 1 ч. 51 м.
Режим общего битрейта : Постоянный
Общий поток : 9 123 Кбит/сек
Программа кодирования : libmatroska 1.4.1
Библиотека кодирования : SolveigMM Matroska Muxer Version 1.0.1904.23
Видео
Идентификатор : 1
Формат : AVC
Формат/Информация : Advanced Video Codec
Профиль формата : High@L4.1
Настройки формата : CABAC / 4 Ref Frames
Параметр CABAC формата : Да
Параметр RefFrames формата : 4 кадра
Идентификатор кодека : V_MPEG4/ISO/AVC
Продолжительность : 1 ч. 51 м.
Вид битрейта : Постоянный
Битрейт : 8 558 Кбит/сек
Номинальный битрейт : 10 000 Кбит/сек
Ширина : 1 920 пикселей
Высота : 804 пикселя
Соотношение сторон : 2,40:1
Режим частоты кадров : Постоянный
Частота кадров : 23,976 (24000/1001) кадра/сек
Стандарт вещания : Component
Цветовое пространство : YUV
Субдискретизация насыщенности : 4:2:0
Битовая глубина : 8 бит
Тип развёртки : Прогрессивная
Бит/(Пиксели*Кадры) : 0.231
Размер потока : 6,64 Гбайт (94%)
Default : Нет
Forced : Нет
Цветовой диапазон : Limited
Основные цвета : BT.709
Характеристики трансфера : BT.709
Коэффициенты матрицы : BT.709
Аудио
Идентификатор : 2
Формат : AC-3
Формат/Информация : Audio Coding 3
Коммерческое название : Dolby Digital
Идентификатор кодека : A_AC3
Продолжительность : 1 ч. 51 м.
Вид битрейта : Постоянный
Битрейт : 384 Кбит/сек
Каналы : 2 канала
Channel layout : L R
Частота : 48,0 КГц
Частота кадров : 31,250 кадров/сек (1536 SPF)
Метод сжатия : С потерями
Размер потока : 305 Мбайт (4%)
Язык : Russian
Service kind : Complete Main
Default : Нет
Forced : Нет
Скриншоты: Все одноименные релизы в КлубеВремя раздачи: 24/7 (до 10-ти скачавших)
[Профиль] [ЛС]
Показать сообщения:    
Ответить на тему

Текущее время: 23-Май 06:54

Часовой пояс: UTC ± 0



Вы не можете начинать темы
Вы не можете отвечать на сообщения
Вы не можете редактировать свои сообщения
Вы не можете удалять свои сообщения
Вы не можете голосовать в опросах
Вы не можете прикреплять файлы к сообщениям
Вы не можете скачивать файлы

[  Время выполнения: 0,047 сек  |  MySQL: 0,004 сек (8%) · 3 запр.  |  GZIP выкл  |  Память: 422,49 KB / 1,74 MB / 1,34 MB  |  Лимит: 8 8 8  ]