Белый слон / White Elephant (2022) WEBRip [MVO, AD]

Ответить на тему
 
Автор Сообщение

admin ®

Пол: Не указан

Стаж: 4 месяца 23 дня

Сообщений: 10110

Создавать темы 30-Янв-2024 15:28

[Цитировать]

Белый слон / White Elephant (2022) WEBRip - Производство: США / 308 Ent, BondIt Media Capital
Жанр: боевик, триллер, криминал
Режиссер: Джесси Джонсон
Продюсер: Джордан Бекман, Гордон Бижелонич, Джефф Боулер
Актеры: Брюс Уиллис, Ольга Куриленко, Майкл Рукер, Джон Малкович, Майкл Эдвард Роуз, Лорен Бульоли, Lorenzo Antonucci, Вадир Дербес, Эрик Борк, Крис Кливлэнд
Описание:
Бывший морской пехотинец решает покончить с прошлым и начать новую жизнь. Однако ему придётся переступить все свои принципы и даже совесть, ведь сейчас всё зависит только от него. Услуги мафии — это не игра, и за это будет спрос.
Дата мировой премьеры: 3 июня 2022
Релиз от: Anrif
Продолжительность: 01:30:47
Качество видео: WEBRip
Перевод: Многоголосый (MuzoBoz)
Язык озвучки: Русский
Субтитры: Отсутствуют
Реклама: Присутствует баннер!
Видео: XviD, 720x304, ~2076 kbps
Аудио: AC-3, 2 ch, 384 kbps

MediaInfo:

Общее
Полное имя : F:\[Anf].White Elephant.(2022).WEBRip.avi
Формат : AVI
Формат/Информация : Audio Video Interleave
Размер файла : 1,57 Гбайт
Продолжительность : 1 ч. 30 м.
Общий поток : 2 472 Кбит/сек
Название фильма : Белый слон / White Elephant
Режиссёр : Джесси Джонсон
Жанр : боевик, триллер, криминал
Тема : WEBRip
Дата записи : 2022
Программа кодирования : VirtualDubMod 1.5.10.3 | www.virtualdub-fr.org || (build 2550/release)
Библиотека кодирования : VirtualDubMod build 2550/release
Авторское право : 308 Ent, BondIt Media Capital
Примечание : RIP BY -=ANRIF=-
Видео
Идентификатор : 0
Формат : MPEG-4 Visual
Профиль формата : Advanced Simple@L5
Настройки формата : BVOP1
Параметр BVOP формата : 1
Параметр QPel формата : Нет
Параметр GMC формата : Без точки перехода
Параметр матрицы формата : Default (MPEG)
Идентификатор кодека : XVID
Идентификатор кодека/Подсказка : XviD
Продолжительность : 1 ч. 30 м.
Битрейт : 2 076 Кбит/сек
Ширина : 720 пикселей
Высота : 304 пикселя
Соотношение сторон : 2,35:1
Частота кадров : 29,970 (30000/1001) кадров/сек
Цветовое пространство : YUV
Субдискретизация насыщенности : 4:2:0
Битовая глубина : 8 бит
Тип развёртки : Прогрессивная
Метод сжатия : С потерями
Бит/(Пиксели*Кадры) : 0.316
Размер потока : 1,32 Гбайт (84%)
Библиотека кодирования : XviD 73
Аудио
Идентификатор : 1
Формат : AC-3
Формат/Информация : Audio Coding 3
Коммерческое название : Dolby Digital
Идентификатор кодека : 2000
Продолжительность : 1 ч. 30 м.
Вид битрейта : Постоянный
Битрейт : 384 Кбит/сек
Каналы : 2 канала
Channel layout : L R
Частота : 48,0 КГц
Частота кадров : 31,250 кадров/сек (1536 SPF)
Метод сжатия : С потерями
Размер потока : 249 Мбайт (16%)
Выравнивание : Разделение по промежуткам
Продолжительность промежутка : 33 мс. (1,00 видеокадр)
Время предзагрузки промежутка : 500 мс.
Заголовок : Русский MVO [MuzoBoz]
Service kind : Complete Main
Скриншоты: Все одноименные релизы в Клубе Время раздачи: с 18:00 до 24:00 (до первых 3-5 скачавших)
[Профиль] [ЛС]
Показать сообщения:    
Ответить на тему

Текущее время: 22-Фев 02:04

Часовой пояс: UTC ± 0



Вы не можете начинать темы
Вы не можете отвечать на сообщения
Вы не можете редактировать свои сообщения
Вы не можете удалять свои сообщения
Вы не можете голосовать в опросах
Вы не можете прикреплять файлы к сообщениям
Вы не можете скачивать файлы

[  Время выполнения: 0,037 сек  |  MySQL: 0,003 сек (9%) · 3 запр.  |  GZIP выкл  |  Память: 421,85 KB / 1,73 MB / 1,34 MB  |  Лимит: 10 10 11  ]