Вендетта. Банды Атланты / Vendetta (2021) WEB-DLRip [H.264/1080p-LQ] [MVO, AD]

Ответить на тему
 
Автор Сообщение

admin ®

Пол: Не указан

Стаж: 4 месяца 27 дня

Сообщений: 10110

Создавать темы 30-Янв-2024 15:27

[Цитировать]

Вендетта. Банды Атланты / Vendetta (2021) WEB-DLRip [H.264/1080p-LQ] - Производство: США / Bar None Productions
Жанр: боевик, триллер
Режиссер: Джаред Кон
Продюсер: Амар Балагган, Кори Лардж, Росс Мразек
Актеры: Брюс Уиллис, Томас Джейн, Клайв Стэнден, Тео Росси, Джеки Мур, Майк Тайсон, Мэдди Николс, Курт Юе, Рэнди Гонзалез, Эрик Борк
Описание:
Бывший морпех Уильям Дункан теряет дочь — девушка стала случайной жертвой разборок уличных банд. Полиция бездействует. Отец берет правосудие в свои руки и расправляется с виновным. Убитый оказывается сыном крупного мафиози, и Дункан попадает в эпицентр войны бандитских группировок.
Возраст: 16+ (зрителям, достигшим 16 лет)
Рейтинг MPAA: R (лицам до 17 лет обязательно присутствие взрослого)
Дата мировой премьеры: 17 мая 2022
Дата российской премьеры: 2 июня 2022
Релиз от: Anrif
Продолжительность: 01:33:54
Качество видео: WEB-DLRip (1080p)
Перевод: Многоголосый любительский (AlphaProject)
Язык озвучки: Русский
Субтитры: Отсутствуют
Реклама: Присутствует баннер!
Видео: AVC/H.264, 1912x800, ~6307 Kbps
Аудио: AC-3, 2 ch, 192 Kbps

MediaInfo:

Общее
Уникальный идентификатор : 228631191677987673667617763112062146394 (0xAC00C40D42FE86F49622627368F9D75A)
Полное имя : F:\[Anf].Vendetta.(2022).WEB-DLRip.[1080p-LQ].mkv
Формат : Matroska
Версия формата : Version 4
Размер файла : 4,26 Гбайт
Продолжительность : 1 ч. 33 м.
Режим общего битрейта : Постоянный
Общий поток : 6 501 Кбит/сек
Название фильма : Вендетта. Банды Атланты / Vendetta...(2022)
Дата кодирования : UTC 2022-05-19 20:40:52
Программа кодирования : mkvmerge v8.3.0 ('Over the Horizon') 64bit
Библиотека кодирования : libebml v1.3.1 + libmatroska v1.4.2
Обложка : Yes
Attachments : cover.jpg
Видео
Идентификатор : 1
Формат : AVC
Формат/Информация : Advanced Video Codec
Профиль формата : High@L4.1
Настройки формата : CABAC / 4 Ref Frames
Параметр CABAC формата : Да
Параметр RefFrames формата : 4 кадра
Идентификатор кодека : V_MPEG4/ISO/AVC
Продолжительность : 1 ч. 33 м.
Вид битрейта : Постоянный
Битрейт : 6 307 Кбит/сек
Номинальный битрейт : 7 000 Кбит/сек
Ширина : 1 912 пикселей
Высота : 800 пикселей
Соотношение сторон : 2,40:1
Режим частоты кадров : Постоянный
Частота кадров : 23,976 (24000/1001) кадра/сек
Стандарт вещания : Component
Цветовое пространство : YUV
Субдискретизация насыщенности : 4:2:0
Битовая глубина : 8 бит
Тип развёртки : Прогрессивная
Бит/(Пиксели*Кадры) : 0.172
Размер потока : 4,14 Гбайт (97%)
Заголовок : -=Anrif=-
Язык : English
Default : Да
Forced : Да
Цветовой диапазон : Limited
Основные цвета : BT.709
Характеристики трансфера : BT.709
Коэффициенты матрицы : BT.709
Аудио
Идентификатор : 2
Формат : AC-3
Формат/Информация : Audio Coding 3
Коммерческое название : Dolby Digital
Идентификатор кодека : A_AC3
Продолжительность : 1 ч. 33 м.
Вид битрейта : Постоянный
Битрейт : 192 Кбит/сек
Каналы : 2 канала
Channel layout : L R
Частота : 48,0 КГц
Частота кадров : 31,250 кадров/сек (1536 SPF)
Метод сжатия : С потерями
Размер потока : 129 Мбайт (3%)
Заголовок : DUB [AlphaProject]
Язык : Russian
Service kind : Complete Main
Default : Да
Forced : Да
Скриншоты: Все одноименные релизы в Клубе Время раздачи: с 18:00 до 24:00 (до первых 3-5 скачавших)
[Профиль] [ЛС]
Показать сообщения:    
Ответить на тему

Текущее время: 25-Фев 21:22

Часовой пояс: UTC ± 0



Вы не можете начинать темы
Вы не можете отвечать на сообщения
Вы не можете редактировать свои сообщения
Вы не можете удалять свои сообщения
Вы не можете голосовать в опросах
Вы не можете прикреплять файлы к сообщениям
Вы не можете скачивать файлы

[  Время выполнения: 0,052 сек  |  MySQL: 0,002 сек (4%) · 3 запр.  |  GZIP выкл  |  Память: 422,29 KB / 1,74 MB / 1,34 MB  |  Лимит: 17 15 13  ]