Расплата / Above Snakes (2022) WEBRip [H.264/1080p-LQ] [MVO] [AD]

Ответить на тему
 
Автор Сообщение

admin ®

Пол: Не указан

Стаж: 4 месяца 23 дня

Сообщений: 10110

Создавать темы 30-Янв-2024 15:27

[Цитировать]

Расплата / Above Snakes (2022) WEBRip [H.264/1080p-LQ]- Производство: США / Jefybal Productions
Жанр: детектив, вестерн
Режиссер: Tyler Smith
Актеры: Rebecah Rye, Brandon Baker, Лон Ханна, Джеффри Смит, Марк Макферсон, Shannon Sinclear, Joaquin Vargas Jr., Steven Haynes Jr., Gary Torres, Донна Робинсон
Описание:
Вышедший из тюрьмы Коулман Доббс хочет отомстить судье, вынесшему ему приговор. Что может быть лучше, чем забрать единственное, что действительно ему важно - его дочь? Но просто ли будет воплотить этот план в жизнь?
Дата мировой премьеры: 7 июня 2022
Продолжительность: 01:16:39
Качество видео: WEBRip
Перевод: Многоголосый любительский (AlphaProject)
Субтитры: Отсутствуют
Реклама: Присутствует баннер.
Видео: AVC/H.264, 1916x764, ~5885 Kbps
Аудио: AC-3, 2 ch, 384 Kbps

MediaInfo:

Общее
Полное имя : D:\NNM\Расплата\Above.Snakes.2022.WEBRip.1080p-LQ.mkv
Формат : Matroska
Версия формата : Version 2
Размер файла : 3,42 Гбайт
Продолжительность : 1 ч. 16 м.
Режим общего битрейта : Постоянный
Общий поток : 6 396 Кбит/сек
Программа кодирования : libmatroska 1.4.1
Библиотека кодирования : SolveigMM Matroska Muxer Version 1.0.1904.23
Видео
Идентификатор : 1
Формат : AVC
Формат/Информация : Advanced Video Codec
Профиль формата : High@L4.1
Настройки формата : CABAC / 4 Ref Frames
Параметр CABAC формата : Да
Параметр RefFrames формата : 4 кадра
Идентификатор кодека : V_MPEG4/ISO/AVC
Продолжительность : 1 ч. 16 м.
Вид битрейта : Постоянный
Битрейт : 5 885 Кбит/сек
Номинальный битрейт : 7 000 Кбит/сек
Ширина : 1 916 пикселей
Высота : 764 пикселя
Соотношение сторон : 2,508
Режим частоты кадров : Постоянный
Частота кадров : 23,976 (24000/1001) кадра/сек
Стандарт вещания : Component
Цветовое пространство : YUV
Субдискретизация насыщенности : 4:2:0
Битовая глубина : 8 бит
Тип развёртки : Прогрессивная
Бит/(Пиксели*Кадры) : 0.168
Размер потока : 3,15 Гбайт (92%)
Default : Нет
Forced : Нет
Цветовой диапазон : Limited
Основные цвета : BT.709
Характеристики трансфера : BT.709
Коэффициенты матрицы : BT.709
Аудио
Идентификатор : 2
Формат : AC-3
Формат/Информация : Audio Coding 3
Коммерческое название : Dolby Digital
Идентификатор кодека : A_AC3
Продолжительность : 1 ч. 16 м.
Вид битрейта : Постоянный
Битрейт : 384 Кбит/сек
Каналы : 6 каналов
Channel layout : L R C LFE Ls Rs
Частота : 48,0 КГц
Частота кадров : 31,250 кадров/сек (1536 SPF)
Метод сжатия : С потерями
Размер потока : 211 Мбайт (6%)
Язык : Russian
Service kind : Complete Main
Default : Нет
Forced : Нет
Скриншоты: Все одноименные релизы в КлубеВремя раздачи: 24/7 (до 10-ти скачавших)
[Профиль] [ЛС]
Показать сообщения:    
Ответить на тему

Текущее время: 22-Фев 00:56

Часовой пояс: UTC ± 0



Вы не можете начинать темы
Вы не можете отвечать на сообщения
Вы не можете редактировать свои сообщения
Вы не можете удалять свои сообщения
Вы не можете голосовать в опросах
Вы не можете прикреплять файлы к сообщениям
Вы не можете скачивать файлы

[  Время выполнения: 0,043 сек  |  MySQL: 0,003 сек (8%) · 3 запр.  |  GZIP выкл  |  Память: 421,85 KB / 1,73 MB / 1,34 MB  |  Лимит: 20 20 18  ]