Сердца в клочья / Torn Hearts (2022) WEB-DLRip [MVO] [AD]

Ответить на тему
 
Автор Сообщение

admin ®

Пол: Не указан

Стаж: 6 месяца 22 дня

Сообщений: 11520

Создавать темы 30-Янв-2024 15:25

[Цитировать]

Сердца в клочья / Torn Hearts (2022) WEB-DLRip [MVO] - Производство: США, Blumhouse Television
Жанр: ужасы, триллер, драма, музыка
Режиссер: Бриа Грант
Продюсер: Пейдж Пембертон, Пол Уддо, Джейсон Блум
Актеры: Кэти Сагал, Шайло Фернандес, Джошуа Леонард, Эбби Куинн, Алекссис Лемир, Кларк Вульф, Трина ЛаФарг, Сейлор Лароккью, Alon McKlveen, Nathalie J. Alarcon
Описание:
Две начинающие кантри-певицы мечтают о славе на весь Нэшвилл. Чтобы заявить миру о себе они решают записать песню с легендой кантри исполнительницей Харпер Датч, которая давно стала отшельницей и живет в своем особняке в одиночестве. Девушки решают нарушить покой Харпер и уговорить ее на совместный трек. Но когда они оказываются в гостях у певицы, их ждет крайне неприятный и очень непредсказуемый поворот.
Дата мировой премьеры: 20.05.2022
Продолжительность: 01:38:23
Качество видео: WEB-DLRip
Перевод: Любительский (многоголосый) [AlphaProject]
Субтитры: отсутствуют
Реклама: присутствует рекламная вставка, банер
Видео: Xvid, 720x304, ~1596 Kbps
Аудио: AC3, 2 ch, 384 Kbps

MediaInfo:

Общее
Полное имя : F:\Видео\Сердце в клочья\Torn.Hearts.2022.P.WEB-DLRip.14OOMB.avi
Формат : AVI
Формат/Информация : Audio Video Interleave
Размер файла : 1,37 Гбайт
Продолжительность : 1 ч. 38 м.
Общий поток : 1 989 Кбит/сек
Программа кодирования : VirtualDubMod 1.5.10.3 | www.virtualdub-fr.org || (build 2550/release)
Библиотека кодирования : VirtualDubMod build 2550/release
Видео
Идентификатор : 0
Формат : MPEG-4 Visual
Профиль формата : Advanced Simple@L5
Настройки формата : BVOP2 / Custom Matrix
Параметр BVOP формата : 2
Параметр QPel формата : Нет
Параметр GMC формата : Без точки перехода
Параметр матрицы формата : Выборочная
Идентификатор кодека : XVID
Идентификатор кодека/Подсказка : XviD
Продолжительность : 1 ч. 38 м.
Битрейт : 1 596 Кбит/сек
Ширина : 720 пикселей
Высота : 304 пикселя
Соотношение сторон : 2,35:1
Частота кадров : 23,976 (24000/1001) кадра/сек
Цветовое пространство : YUV
Субдискретизация насыщенности : 4:2:0
Битовая глубина : 8 бит
Тип развёртки : Прогрессивная
Метод сжатия : С потерями
Бит/(Пиксели*Кадры) : 0.304
Размер потока : 1,10 Гбайт (80%)
Библиотека кодирования : XviD 1.2.1 (UTC 2008-12-04)
Аудио
Идентификатор : 1
Формат : AC-3
Формат/Информация : Audio Coding 3
Коммерческое название : Dolby Digital
Идентификатор кодека : 2000
Продолжительность : 1 ч. 38 м.
Вид битрейта : Постоянный
Битрейт : 384 Кбит/сек
Каналы : 2 канала
Channel layout : L R
Частота : 48,0 КГц
Частота кадров : 31,250 кадров/сек (1536 SPF)
Метод сжатия : С потерями
Размер потока : 270 Мбайт (19%)
Выравнивание : Разделение по промежуткам
Продолжительность промежутка : 42 мс. (1,00 видеокадр)
Время предзагрузки промежутка : 500 мс.
Service kind : Complete Main
Скриншоты:
Все одноименные релизы в КлубеВремя раздачи: 8:00 - 20:00, ежедневно (минимум до появления первых 3-5 скачавших)
[Профиль] [ЛС]
Показать сообщения:    
Ответить на тему

Текущее время: 20-Апр 19:05

Часовой пояс: UTC ± 0



Вы не можете начинать темы
Вы не можете отвечать на сообщения
Вы не можете редактировать свои сообщения
Вы не можете удалять свои сообщения
Вы не можете голосовать в опросах
Вы не можете прикреплять файлы к сообщениям
Вы не можете скачивать файлы

[  Время выполнения: 0,034 сек  |  MySQL: 0,003 сек (8%) · 3 запр.  |  GZIP выкл  |  Память: 422,29 KB / 1,74 MB / 1,34 MB  |  Лимит: 11 13 14  ]