Нечто: Возвращение / The Thing Returns / The Thing: O Regresso (2021) WEBRip [H.264/720p-LQ] [MVO, AD]

Ответить на тему
 
Автор Сообщение

admin ®

Пол: Не указан

Стаж: 4 месяца 27 дня

Сообщений: 10110

Создавать темы 30-Янв-2024 15:24

[Цитировать]

Нечто: Возвращение / The Thing: O Regresso (2021) WEBRip [H.264/720p-LQ]
«You thought it was over...think again...it's back...»
- Производство: Португалия / Constantino Filmes, Unknown World Pictures
Жанр: ужасы, фантастика, боевик
Режиссер: Rui Constantino
Продюсер: Paulo Constantino, Duke Sheppard
Актеры: Caleb Angel, Robinson Cohen, Paulo Constantino, Rui Constantino, Miguel D. Dias, Joseph Dylan, Tom Fender, Jasmine G., Thomas Graden, Jeremiah Gun
Описание:
События происходят на отдалённой научной станции расположенной в Антарктиде, где группа исследователей внезапно столкнулась с жутким и необъяснимым злом. Какой-то инопланетный организм, у которого есть уникальная возможность мимикрировать под других живых существ, совершил нападение на экспедицию и стремится вырваться из ледяного плена и отправиться туда, где будет больше жертв.
Дата мировой премьеры: 14 мая 2021
Релиз от: Anrif
Продолжительность: 01:36:50
Качество видео: WEB-DLRip
Перевод: Многоголосый профессиональный (Синема УС)
Язык озвучки: Русский
Субтитры: Португальские (hardsub)
Реклама: Присутствует баннер!
Видео: AVC/H.264, 1280x720, ~4279 Kbps
Аудио: AC-3, 2 ch, 192 Kbps

MediaInfo:

Общее
Уникальный идентификатор : 249276229929997733825481533065630602042 (0xBB88DB064854E57E9DF43EA7AAE8533A)
Полное имя : F:\[Anf].The.Thing.o.Regresso.(2021).WEB-DLRip.[720p-LQ].mkv
Формат : Matroska
Версия формата : Version 4
Размер файла : 3,03 Гбайт
Продолжительность : 1 ч. 36 м.
Режим общего битрейта : Постоянный
Общий поток : 4 474 Кбит/сек
Название фильма : НЕЧТО: Возвращение / The Thing: O Regresso (2021)
Дата кодирования : UTC 2022-05-25 18:41:55
Программа кодирования : mkvmerge v8.3.0 ('Over the Horizon') 64bit
Библиотека кодирования : libebml v1.3.1 + libmatroska v1.4.2
Обложка : Yes
Attachments : cover.jpg
Видео
Идентификатор : 1
Формат : AVC
Формат/Информация : Advanced Video Codec
Профиль формата : High@L4.1
Настройки формата : CABAC / 4 Ref Frames
Параметр CABAC формата : Да
Параметр RefFrames формата : 4 кадра
Идентификатор кодека : V_MPEG4/ISO/AVC
Продолжительность : 1 ч. 36 м.
Вид битрейта : Постоянный
Битрейт : 4 279 Кбит/сек
Номинальный битрейт : 5 000 Кбит/сек
Ширина : 1 280 пикселей
Высота : 720 пикселей
Соотношение сторон : 16:9
Режим частоты кадров : Постоянный
Частота кадров : 23,976 (24000/1001) кадра/сек
Стандарт вещания : Component
Цветовое пространство : YUV
Субдискретизация насыщенности : 4:2:0
Битовая глубина : 8 бит
Тип развёртки : Прогрессивная
Бит/(Пиксели*Кадры) : 0.194
Размер потока : 2,89 Гбайт (96%)
Заголовок : -=Anrif=-
Библиотека кодирования : x264 core 155
Настройки программы : cabac=1 / ref=4 / deblock=1:0:0 / analyse=0x3:0x3 / me=dia / subme=1 / psy=1 / psy_rd=1.00:0.00 / mixed_ref=0 / me_range=16 / chroma_me=1 / trellis=0 / 8x8dct=1 / cqm=1 / deadzone=21,11 / fast_pskip=1 / chroma_qp_offset=0 / threads=22 / lookahead_threads=3 / sliced_threads=0 / slices=1 / nr=0 / decimate=1 / interlaced=0 / minigop=0 / stitchable=1 / constrained_intra=0 / bframes=2 / b_pyramid=0 / b_adapt=0 / b_bias=0 / direct=1 / weightb=1 / open_gop=1 / weightp=0 / keyint=240 / keyint_min=23 / scenecut=40 / intra_refresh=0 / rc_lookahead=0 / rc=cbr / mbtree=0 / bitrate=5000 / ratetol=1.0 / qcomp=0.60 / qpmin=1 / qpmax=69 / qpstep=4 / vbv_maxrate=5000 / vbv_bufsize=5000 / nal_hrd=cbr / filler=1 / ip_ratio=1.40 / pb_ratio=1.30 / aq=1:1.00
Язык : Portuguese
Default : Да
Forced : Да
Цветовой диапазон : Limited
Основные цвета : BT.709
Характеристики трансфера : BT.709
Коэффициенты матрицы : BT.709
Аудио
Идентификатор : 2
Формат : AC-3
Формат/Информация : Audio Coding 3
Коммерческое название : Dolby Digital
Идентификатор кодека : A_AC3
Продолжительность : 1 ч. 36 м.
Вид битрейта : Постоянный
Битрейт : 192 Кбит/сек
Каналы : 2 канала
Channel layout : L R
Частота : 48,0 КГц
Частота кадров : 31,250 кадров/сек (1536 SPF)
Метод сжатия : С потерями
Размер потока : 133 Мбайт (4%)
Заголовок : MVO ["Синема УС"]
Язык : Russian
Service kind : Complete Main
Default : Да
Forced : Да
Скриншоты: Все одноименные релизы в Клубе Время раздачи: с 18:00 до 24:00 (до первых 3-5 скачавших)
[Профиль] [ЛС]
Показать сообщения:    
Ответить на тему

Текущее время: 25-Фев 18:56

Часовой пояс: UTC ± 0



Вы не можете начинать темы
Вы не можете отвечать на сообщения
Вы не можете редактировать свои сообщения
Вы не можете удалять свои сообщения
Вы не можете голосовать в опросах
Вы не можете прикреплять файлы к сообщениям
Вы не можете скачивать файлы

[  Время выполнения: 0,040 сек  |  MySQL: 0,004 сек (10%) · 3 запр.  |  GZIP выкл  |  Память: 422,29 KB / 1,74 MB / 1,36 MB  |  Лимит: 21 20 18  ]