Пёс. Апокалипсис / Dog - Apocalypse (2022) WEBRip [H.264/720p] [MVO, AD]

Ответить на тему
 
Автор Сообщение

admin ®

Пол: Не указан

Стаж: 7 месяца 24 дня

Сообщений: 11520

Создавать темы 30-Янв-2024 15:24

[Цитировать]

Пёс. Апокалипсис / Dog - Apocalypse (2022) WEBRip [H.264/720p] - Производство: Италия / Adrama
Жанр: боевик
Режиссер: Федерико Алотто
Актеры: Андреа Дзирио, Стюарт Арнольд, Ортензия Фьораванти, Энди Баррека, Майкл Бертуол
Описание:
В 2023 году из-за неизвестного вида радиации девяносто девять процентов всех женщин планеты стали бесплодными. Теперь у человечества осталось два пути: исчезновение.. или новый рассвет.
Продолжительность: 01:19:18
Качество видео: WEBRip
Перевод: Многоголосый любительский (AlphaProject)
Язык озвучки: Русский
Субтитры: Отсутствуют
Реклама: Присутствует баннер
Видео: AVC/H.264, 1280x504, ~4755 Kbps
Аудио: AC3, 2 ch, 384 Kbps

MediaInfo:

Общее
Уникальный идентификатор : 15843024186239850584784553348084977350 (0xBEB41666A7A4FFA5FD0F7DDEE52CEC6)
Полное имя : F:\Dog.Apocalypse.2022.mkv
Формат : Matroska
Версия формата : Version 4
Размер файла : 2,90 Гбайт
Продолжительность : 1 ч. 19 м.
Режим общего битрейта : Постоянный
Общий поток : 5 243 Кбит/сек
Программа кодирования : Lavf57.71.100
Библиотека кодирования : Lavf57.71.100
ErrorDetectionType : Per level 1
Видео
Идентификатор : 1
Формат : AVC
Формат/Информация : Advanced Video Codec
Профиль формата : High@L4.1
Настройки формата : CABAC / 4 Ref Frames
Параметр CABAC формата : Да
Параметр RefFrames формата : 4 кадра
Идентификатор кодека : V_MPEG4/ISO/AVC
Продолжительность : 1 ч. 19 м.
Вид битрейта : Постоянный
Битрейт : 4 755 Кбит/сек
Номинальный битрейт : 5 000 Кбит/сек
Ширина : 1 280 пикселей
Высота : 504 пикселя
Соотношение сторон : 2,540
Режим частоты кадров : Постоянный
Частота кадров : 23,976 (24000/1001) кадра/сек
Стандарт вещания : Component
Цветовое пространство : YUV
Субдискретизация насыщенности : 4:2:0
Битовая глубина : 8 бит
Тип развёртки : Прогрессивная
Бит/(Пиксели*Кадры) : 0.307
Размер потока : 2,63 Гбайт (91%)
Default : Да
Forced : Нет
Цветовой диапазон : Limited
Основные цвета : BT.709
Характеристики трансфера : BT.709
Коэффициенты матрицы : BT.709
Аудио
Идентификатор : 2
Формат : AC-3
Формат/Информация : Audio Coding 3
Коммерческое название : Dolby Digital
Идентификатор кодека : A_AC3
Продолжительность : 1 ч. 19 м.
Вид битрейта : Постоянный
Битрейт : 384 Кбит/сек
Каналы : 2 канала
Channel layout : L R
Частота : 48,0 КГц
Частота кадров : 31,250 кадров/сек (1536 SPF)
Метод сжатия : С потерями
Задержка видео : -42 мс.
Размер потока : 218 Мбайт (7%)
Service kind : Complete Main
Default : Да
Forced : Нет
Скриншоты:
Все одноименные релизы в КлубеВремя раздачи: 24/7 (круглосуточно) (минимум до появления первых 3-5 скачавших)
[Профиль] [ЛС]
Показать сообщения:    
Ответить на тему

Текущее время: 23-Май 06:51

Часовой пояс: UTC ± 0



Вы не можете начинать темы
Вы не можете отвечать на сообщения
Вы не можете редактировать свои сообщения
Вы не можете удалять свои сообщения
Вы не можете голосовать в опросах
Вы не можете прикреплять файлы к сообщениям
Вы не можете скачивать файлы

[  Время выполнения: 0,032 сек  |  MySQL: 0,004 сек (12%) · 3 запр.  |  GZIP выкл  |  Память: 422,49 KB / 1,72 MB / 1,32 MB  |  Лимит: 8 8 8  ]