Вставай. Рычи. Протестуй / RRR (2022) WEBRip [H.264/720p-LQ] [MVO, AD]

Ответить на тему
 
Автор Сообщение

admin ®

Пол: Не указан

Стаж: 4 месяца 27 дня

Сообщений: 10110

Создавать темы 30-Янв-2024 15:24

[Цитировать]

Вставай. Рычи. Протестуй / RRR (2022) WEBRip [H.264/720p-LQ] - Производство: Индия / DVV Entertainment
Жанр: боевик, драма, история
Режиссер: С.С. Раджамули
Актеры: Н.Т.Р. мл., Рам Чаран Теджа, Алиа Бхатт, Аджай Девган, Оливия Моррис, Самудира Кани, Элисон Дуди, Рэй Стивенсон, Рохит Бхуджбал, Шрия
Описание:
Британская Индия. Рама — преданный полицейский на службе у колониального правительства, способный расправиться с толпой в одиночку, и местные считают его предателем. Бхим — парень из племени гондов, который вынужден отправиться в Дели на поиски похищенной губернатором маленькой соплеменницы. Узнав об этом, губернатор объявляет награду за его поимку, и, чтобы продвинуться по службе, Рама берётся за это задание. Спасая упавшего в реку мальчика, Рама и Бхим становятся друзьями. Они не знают ни настоящих личностей, ни скрытых мотивов друг друга, но это знакомство положит начало большим переменам.
Возраст: 12+ (зрителям, достигшим 12 лет)
Дата мировой премьеры: 24 марта 2022
Дата российской премьеры: 25 марта 2022, «Indian Films»
Продолжительность: 02:58:05
Качество видео: WEBRip
Перевод: Многоголосый закадровый (Синема УС)
Язык озвучки: Русский
Субтитры: Английские (hardsub)
Реклама: Присутствует реклама аудио, видео, баннер
Видео: AVC/H.264, 1280x544 (2.35:1), ~2640 Kbps
Аудио: AC3, 2 ch, 384 Kbps

MediaInfo:

Общее
Уникальный идентификатор : 28873697896408196028798262148464743007 (0x15B8DF375AADFF8A656913DD6E51925F)
Полное имя : F:\RRR.2022.mkv
Формат : Matroska
Версия формата : Version 4
Размер файла : 3,84 Гбайт
Продолжительность : 2 ч. 58 м.
Режим общего битрейта : Постоянный
Общий поток : 3 087 Кбит/сек
Программа кодирования : Lavf58.76.100
Библиотека кодирования : Lavf58.76.100
ErrorDetectionType : Per level 1
Видео
Идентификатор : 1
Формат : AVC
Формат/Информация : Advanced Video Codec
Профиль формата : High@L4.1
Настройки формата : CABAC / 4 Ref Frames
Параметр CABAC формата : Да
Параметр RefFrames формата : 4 кадра
Идентификатор кодека : V_MPEG4/ISO/AVC
Продолжительность : 2 ч. 58 м.
Вид битрейта : Постоянный
Битрейт : 2 641 Кбит/сек
Номинальный битрейт : 3 000 Кбит/сек
Ширина : 1 280 пикселей
Высота : 544 пикселя
Соотношение сторон : 2,35:1
Режим частоты кадров : Постоянный
Частота кадров : 23,976 (24000/1001) кадра/сек
Стандарт вещания : Component
Цветовое пространство : YUV
Субдискретизация насыщенности : 4:2:0
Битовая глубина : 8 бит
Тип развёртки : Прогрессивная
Бит/(Пиксели*Кадры) : 0.158
Размер потока : 3,29 Гбайт (86%)
Библиотека кодирования : x264 core 155
Настройки программы : cabac=1 / ref=4 / deblock=1:0:0 / analyse=0x3:0x3 / me=dia / subme=1 / psy=1 / psy_rd=1.00:0.00 / mixed_ref=0 / me_range=16 / chroma_me=1 / trellis=0 / 8x8dct=1 / cqm=1 / deadzone=21,11 / fast_pskip=1 / chroma_qp_offset=0 / threads=17 / lookahead_threads=2 / sliced_threads=0 / slices=1 / nr=0 / decimate=1 / interlaced=0 / minigop=0 / stitchable=1 / constrained_intra=0 / bframes=2 / b_pyramid=0 / b_adapt=0 / b_bias=0 / direct=1 / weightb=1 / open_gop=0 / weightp=0 / keyint=240 / keyint_min=23 / scenecut=0 / intra_refresh=0 / rc_lookahead=0 / rc=cbr / mbtree=0 / bitrate=3000 / ratetol=1.0 / qcomp=0.60 / qpmin=1 / qpmax=51 / qpstep=4 / vbv_maxrate=3000 / vbv_bufsize=3000 / nal_hrd=cbr / filler=1 / ip_ratio=1.40 / pb_ratio=1.30 / aq=1:1.00
Default : Да
Forced : Нет
Цветовой диапазон : Limited
Основные цвета : BT.709
Характеристики трансфера : BT.709
Коэффициенты матрицы : BT.709
Аудио
Идентификатор : 2
Формат : AC-3
Формат/Информация : Audio Coding 3
Коммерческое название : Dolby Digital
Идентификатор кодека : A_AC3
Продолжительность : 2 ч. 58 м.
Вид битрейта : Постоянный
Битрейт : 384 Кбит/сек
Каналы : 2 канала
Channel layout : L R
Частота : 48,0 КГц
Частота кадров : 31,250 кадров/сек (1536 SPF)
Метод сжатия : С потерями
Размер потока : 489 Мбайт (12%)
Service kind : Complete Main
Default : Да
Forced : Нет
Скриншоты:
Все одноименные релизы в КлубеВремя раздачи: 24/7 (круглосуточно) (минимум до появления первых 3-5 скачавших)
[Профиль] [ЛС]
Показать сообщения:    
Ответить на тему

Текущее время: 25-Фев 21:28

Часовой пояс: UTC ± 0



Вы не можете начинать темы
Вы не можете отвечать на сообщения
Вы не можете редактировать свои сообщения
Вы не можете удалять свои сообщения
Вы не можете голосовать в опросах
Вы не можете прикреплять файлы к сообщениям
Вы не можете скачивать файлы

[  Время выполнения: 0,035 сек  |  MySQL: 0,003 сек (9%) · 3 запр.  |  GZIP выкл  |  Память: 422,29 KB / 1,74 MB / 1,34 MB  |  Лимит: 15 16 14  ]