Фантастические твари: Тайны Дамблдора / Fantastic Beasts: The Secrets of Dumbledore (2022) WEBRip [MVO] [AD]

Ответить на тему
 
Автор Сообщение

admin ®

Пол: Не указан

Стаж: 5 месяца

Сообщений: 10110

Создавать темы 30-Янв-2024 15:24

[Цитировать]

Фантастические твари: Тайны Дамблдора / Fantastic Beasts: The Secrets of Dumbledore (2022) WEBRip- Производство: Великобритания, США / Heyday Films, Warner Bros.
Жанр: фэнтези, приключения, семейный
Режиссер: Дэвид Йейтс
Актеры: Эдди Редмэйн, Джуд Лоу, Эзра Миллер, Дэн Фоглер, Элисон Судол, Каллум Тернер, Джессика Уильямс, Кэтрин Уотерстон, Мадс Миккельсен, Оливер Мазуччи
Описание:
Профессор Альбус Дамблдор узнает, что могущественный тёмный волшебник Геллерт Грин-де-Вальд планирует захватить власть над миром. Понимая, что не сможет остановить его в одиночку, Дамблдор просит магозоолога Ньюта Саламандера возглавить команду выдающихся волшебников и одного отважного магла-пекаря. Им предстоят невероятно опасные приключения, встреча со старыми и укрощение новых магических существ и борьба со сторонниками Грин-де-Вальда, которых становится все больше.
Дата мировой премьеры: 6 апреля 2022
Возраст: 12+ (зрителям, достигшим 12 лет)
Рейтинг MPAA: PG-13 (детям до 13 лет просмотр нежелателен)
Продолжительность: 02:21:07
Качество видео: WEBRip
Перевод: Многоголосый любительский (MUZOBOZ)
Субтитры: Корейские (хардсаб)
Реклама: Присутствует баннер.
Видео: XviD, 720x304, ~1629 Kbps
Аудио: AC-3, 2 ch, 384 Kbps

MediaInfo:

Общее
Полное имя : D:\NNM\Фантастические твари\Fantastic.Beasts.The.Secrets.of.Dumbledore.2022.WEBRip.avi
Формат : AVI
Формат/Информация : Audio Video Interleave
Профиль формата : OpenDML
Размер файла : 2,00 Гбайт
Продолжительность : 2 ч. 21 м.
Общий поток : 2 024 Кбит/сек
Видео
Идентификатор : 0
Формат : MPEG-4 Visual
Профиль формата : Advanced Simple@L5
Настройки формата : BVOP2 / Custom Matrix
Параметр BVOP формата : 2
Параметр QPel формата : Нет
Параметр GMC формата : Без точки перехода
Параметр матрицы формата : Выборочная
Идентификатор кодека : XVID
Идентификатор кодека/Подсказка : XviD
Продолжительность : 2 ч. 21 м.
Битрейт : 1 629 Кбит/сек
Ширина : 720 пикселей
Высота : 304 пикселя
Соотношение сторон : 2,35:1
Частота кадров : 23,976 (24000/1001) кадра/сек
Цветовое пространство : YUV
Субдискретизация насыщенности : 4:2:0
Битовая глубина : 8 бит
Тип развёртки : Прогрессивная
Метод сжатия : С потерями
Бит/(Пиксели*Кадры) : 0.310
Размер потока : 1,61 Гбайт (80%)
Библиотека кодирования : XviD 1.2.1 (UTC 2008-12-04)
Аудио
Идентификатор : 1
Формат : AC-3
Формат/Информация : Audio Coding 3
Коммерческое название : Dolby Digital
Идентификатор кодека : 2000
Продолжительность : 2 ч. 21 м.
Вид битрейта : Постоянный
Битрейт : 384 Кбит/сек
Каналы : 2 канала
Channel layout : L R
Частота : 48,0 КГц
Частота кадров : 31,250 кадров/сек (1536 SPF)
Метод сжатия : С потерями
Размер потока : 388 Мбайт (19%)
Выравнивание : Соединение по промежуткам
Продолжительность промежутка : 32 мс. (0,77 видеокадр)
Время предзагрузки промежутка : 2080 мс.
Service kind : Complete Main
Скриншоты: Все одноименные релизы в КлубеВремя раздачи: 24/7 (до 10-ти скачавших)
[Профиль] [ЛС]
Показать сообщения:    
Ответить на тему

Текущее время: 28-Фев 22:37

Часовой пояс: UTC ± 0



Вы не можете начинать темы
Вы не можете отвечать на сообщения
Вы не можете редактировать свои сообщения
Вы не можете удалять свои сообщения
Вы не можете голосовать в опросах
Вы не можете прикреплять файлы к сообщениям
Вы не можете скачивать файлы

[  Время выполнения: 0,035 сек  |  MySQL: 0,003 сек (9%) · 3 запр.  |  GZIP выкл  |  Память: 422,29 KB / 1,74 MB / 1,34 MB  |  Лимит: 9 10 12  ]