Главная роль / Official Competition / Competencia oficial (2021) WEBRip [MVO, AD]

Ответить на тему
 
Автор Сообщение

admin ®

Пол: Не указан

Стаж: 5 месяца

Сообщений: 10110

Создавать темы 30-Янв-2024 15:23

[Цитировать]

Главная роль / Official Competition / Competencia oficial (2021) WEBRip
«Poner el arte a competir es atroz»
- Производство: Испания, Аргентина / The MediaPro Studio
Жанр: драма, комедия
Режиссер: Мариано Кон, Гастон Дюпра
Продюсер: Хауме Роурес, Мариса Фернандес Арментерос, Ева Гарридо
Актеры: Пенелопа Крус, Антонио Бандерас, Оскар Мартинес, Хосе Луис Гомес, Маноло Соло, Нагоре Арамбуру, Ирена Эсколар, Пилар Кастро, Кольдо Олабарри, Хуан Грандинетти
Описание:
Два известных актера поссорились на съемочной площадке картины, финансируемой миллионером с дурной славой. Чтобы спасти картину, тот нанимает знаменитую эксцентричную постановщицу.
Возраст: 16+ (зрителям, достигшим 16 лет)
Рейтинг MPAA: R (лицам до 17 лет обязательно присутствие взрослого)
Дата мировой премьеры: 4 сентября 2021
Дата российской премьеры: 16 июня 2022, «Про:взгляд»
Релиз от: Anrif
Продолжительность: 01:53:18
Качество видео: WEBRip
Перевод: Многоголосый, закадровый (MuzoBoz)
Язык озвучки: Русский
Субтитры: Английские (hardsub)
Реклама: Присутствует баннер!
Видео: XviD, 720x304, 2345 kbps
Аудио: AC-3, 2 ch, 192 Kbps

MediaInfo:

Общее
Полное имя : F:\[Anf].Competencia.oficial.(2021).WEBRip.avi
Формат : AVI
Формат/Информация : Audio Video Interleave
Профиль формата : OpenDML
Размер файла : 2,02 Гбайт
Продолжительность : 1 ч. 53 м.
Общий поток : 2 550 Кбит/сек
Название фильма : Главная роль / Competencia oficial
Режиссёр : Мариано Кон, Гастон Дюпра
Жанр : драма, комедия
Тема : WEBRip
Дата записи : 2021
Программа кодирования : VirtualDubMod 1.5.10.3 | www.virtualdub-fr.org || (build 2550/release)
Библиотека кодирования : VirtualDubMod build 2550/release
Авторское право : The MediaPro Studio
Примечание : RIP BY -=ANRIF=-
Видео
Идентификатор : 0
Формат : MPEG-4 Visual
Профиль формата : Advanced Simple@L5
Настройки формата : BVOP1
Параметр BVOP формата : 1
Параметр QPel формата : Нет
Параметр GMC формата : Без точки перехода
Параметр матрицы формата : Default (MPEG)
Идентификатор кодека : XVID
Идентификатор кодека/Подсказка : XviD
Продолжительность : 1 ч. 53 м.
Битрейт : 2 345 Кбит/сек
Ширина : 720 пикселей
Высота : 304 пикселя
Соотношение сторон : 2,35:1
Частота кадров : 23,976 (24000/1001) кадра/сек
Цветовое пространство : YUV
Субдискретизация насыщенности : 4:2:0
Битовая глубина : 8 бит
Тип развёртки : Прогрессивная
Метод сжатия : С потерями
Бит/(Пиксели*Кадры) : 0.447
Размер потока : 1,86 Гбайт (92%)
Библиотека кодирования : XviD 73
Аудио
Идентификатор : 1
Формат : AC-3
Формат/Информация : Audio Coding 3
Коммерческое название : Dolby Digital
Идентификатор кодека : 2000
Продолжительность : 1 ч. 53 м.
Вид битрейта : Постоянный
Битрейт : 192 Кбит/сек
Каналы : 2 канала
Channel layout : L R
Частота : 48,0 КГц
Частота кадров : 31,250 кадров/сек (1536 SPF)
Метод сжатия : С потерями
Размер потока : 156 Мбайт (8%)
Выравнивание : Разделение по промежуткам
Продолжительность промежутка : 42 мс. (1,00 видеокадр)
Время предзагрузки промежутка : 500 мс.
Заголовок : Русский (MVO, MuzoBoz)
Service kind : Complete Main
Скриншоты: Все одноименные релизы в Клубе Время раздачи: с 18:00 до 24:00 (до первых 3-5 скачавших)
[Профиль] [ЛС]
Показать сообщения:    
Ответить на тему

Текущее время: 28-Фев 22:48

Часовой пояс: UTC ± 0



Вы не можете начинать темы
Вы не можете отвечать на сообщения
Вы не можете редактировать свои сообщения
Вы не можете удалять свои сообщения
Вы не можете голосовать в опросах
Вы не можете прикреплять файлы к сообщениям
Вы не можете скачивать файлы

[  Время выполнения: 0,041 сек  |  MySQL: 0,003 сек (8%) · 3 запр.  |  GZIP выкл  |  Память: 422,29 KB / 1,74 MB / 1,34 MB  |  Лимит: 9 10 11  ]