Последняя жертва / The Last Victim (2021) WEBRip [H.264/1080p-LQ] [MVO, AD]

Ответить на тему
 
Автор Сообщение

admin ®

Пол: Не указан

Стаж: 4 месяца 23 дня

Сообщений: 10110

Создавать темы 30-Янв-2024 15:23

[Цитировать]

Последняя жертва / The Last Victim (2021) WEBRip [H.264/1080p-LQ] - Производство: США / Concourse Media, Mirror Studios, Slated
Жанр: боевик, триллер, криминал, вестерн
Режиссер: Нэвин Чатаппурам
Актеры: Рон Перлман, Эли Лартер, Ралф Айнесон, Тамо Пеникетт, Кайл Шмид, Дакота Долби, Том Стивенс, Кейт Шиэн, Триш Аллен, Мэтт Браун
Описание:
Ужасное преступление в одиноком пустынном городке подстегивает неудержимую цепь событий. Шериф Герман Хикки и его заместитель ведут расследование в отношении местной преступной группировки. Сьюзен и её бойфренд Ричард невольно застают бандитов за уничтожением улик в отдаленной резервации. Ричарда убивают, Сьюзен удается сбежать, и так начинается её долгая борьба за выживание.
Дата мировой премьеры: 16 сентября 2021
Продолжительность: 01:52:21
Качество видео: WEBRip
Перевод: Многоголосый любительский (MUZOBOZ)
Язык озвучки: Русский
Субтитры: Отсутствуют
Реклама: Присутствует реклама аудио, видео, баннер
Видео: AVC/H.264, 1916x716, ~6560 Kbps
Аудио: AC3, 2 ch, 384 Kbps

MediaInfo:

Общее
Уникальный идентификатор : 84258720419808279188394272073780287289 (0x3F63A3A768FF50445CCF10CD2457D739)
Полное имя : F:\The.Last.Victim.2022.mkv
Формат : Matroska
Версия формата : Version 4
Размер файла : 5,56 Гбайт
Продолжительность : 1 ч. 52 м.
Режим общего битрейта : Постоянный
Общий поток : 7 085 Кбит/сек
Программа кодирования : Lavf58.76.100
Библиотека кодирования : Lavf58.76.100
ErrorDetectionType : Per level 1
Видео
Идентификатор : 1
Формат : AVC
Формат/Информация : Advanced Video Codec
Профиль формата : High@L4.1
Настройки формата : CABAC / 4 Ref Frames
Параметр CABAC формата : Да
Параметр RefFrames формата : 4 кадра
Идентификатор кодека : V_MPEG4/ISO/AVC
Продолжительность : 1 ч. 52 м.
Вид битрейта : Постоянный
Битрейт : 6 560 Кбит/сек
Номинальный битрейт : 7 000 Кбит/сек
Ширина : 1 916 пикселей
Высота : 716 пикселей
Соотношение сторон : 2,676
Режим частоты кадров : Постоянный
Частота кадров : 23,976 (24000/1001) кадра/сек
Стандарт вещания : Component
Цветовое пространство : YUV
Субдискретизация насыщенности : 4:2:0
Битовая глубина : 8 бит
Тип развёртки : Прогрессивная
Бит/(Пиксели*Кадры) : 0.199
Размер потока : 5,15 Гбайт (93%)
Default : Да
Forced : Нет
Цветовой диапазон : Limited
Основные цвета : BT.709
Характеристики трансфера : BT.709
Коэффициенты матрицы : BT.709
Аудио
Идентификатор : 2
Формат : AC-3
Формат/Информация : Audio Coding 3
Коммерческое название : Dolby Digital
Идентификатор кодека : A_AC3
Продолжительность : 1 ч. 52 м.
Вид битрейта : Постоянный
Битрейт : 384 Кбит/сек
Каналы : 2 канала
Channel layout : L R
Частота : 48,0 КГц
Частота кадров : 31,250 кадров/сек (1536 SPF)
Метод сжатия : С потерями
Размер потока : 309 Мбайт (5%)
Service kind : Complete Main
Default : Да
Forced : Нет
Скриншоты:
Все одноименные релизы в КлубеВремя раздачи: 24/7 (круглосуточно) (минимум до появления первых 3-5 скачавших)
[Профиль] [ЛС]
Показать сообщения:    
Ответить на тему

Текущее время: 22-Фев 02:17

Часовой пояс: UTC ± 0



Вы не можете начинать темы
Вы не можете отвечать на сообщения
Вы не можете редактировать свои сообщения
Вы не можете удалять свои сообщения
Вы не можете голосовать в опросах
Вы не можете прикреплять файлы к сообщениям
Вы не можете скачивать файлы

[  Время выполнения: 0,029 сек  |  MySQL: 0,003 сек (11%) · 3 запр.  |  GZIP выкл  |  Память: 421,85 KB / 1,72 MB / 1,32 MB  |  Лимит: 7 8 9  ]