Смертельная ловушка / Дыхание / Breath (2022) WEB-DLRip [H.264/1080p-LQ] [MVO] [AD]

Ответить на тему
 
Автор Сообщение

admin ®

Пол: Не указан

Стаж: 5 месяца

Сообщений: 10110

Создавать темы 30-Янв-2024 15:21

[Цитировать]

Дыхание / Breath (2022) WEB-DLRip [H.264/1080p-LQ] - Производство: Италия / Real Dreams Entertainment
Жанр: драма
Режиссер: Джон Реал
Продюсер: Emanuele Leone, Neb Chupin, Рэйчел Дэй
Актеры: Джеймс Космо, Рэйчел Дэй, Neb Chupin
Описание:
Лора Уинслет — выдающийся геолог, вместе со своей командой экспертов она отправляется в Италию на изучение вулканических горных пород. В конце рабочего дня женщина решает подзадержаться, но случайно проваливается в пещеру и оказывается в смертельной ловушке. Теперь ей предстоит собрать всю свою волю в кулак, чтобы выбраться наружу.
Релиз от: Anrif
Продолжительность: 01:45:29
Качество видео: WEB-DLRip (1080p)
Перевод: Любительский многоголосый (Синема УС)
Язык озвучки: Русский
Субтитры: Отсутствуют
Реклама: Присутствует баннер!
Видео: AVC/H.264, 1912х812, ~6184 kbps
Аудио: AС-3, 2 ch, 192 kbps

MediaInfo:

Общее
Уникальный идентификатор : 198596528812705068124902173748379603159 (0x95684CD7E3166360AC989A36FDC950D7)
Полное имя : F:\[Anf].Breath.(2022).WEB-DLRip.[1080p-LQ].mkv
Формат : Matroska
Версия формата : Version 4
Размер файла : 4,70 Гбайт
Продолжительность : 1 ч. 45 м.
Режим общего битрейта : Постоянный
Общий поток : 6 378 Кбит/сек
Название фильма : Дыхание / Breath_(2022)
Дата кодирования : UTC 2022-05-06 01:51:00
Программа кодирования : mkvmerge v8.3.0 ('Over the Horizon') 64bit
Библиотека кодирования : libebml v1.3.1 + libmatroska v1.4.2
Обложка : Yes
Attachments : cover.jpg
Видео
Идентификатор : 1
Формат : AVC
Формат/Информация : Advanced Video Codec
Профиль формата : High@L4.1
Настройки формата : CABAC / 4 Ref Frames
Параметр CABAC формата : Да
Параметр RefFrames формата : 4 кадра
Идентификатор кодека : V_MPEG4/ISO/AVC
Продолжительность : 1 ч. 45 м.
Вид битрейта : Постоянный
Битрейт : 6 184 Кбит/сек
Номинальный битрейт : 7 000 Кбит/сек
Ширина : 1 912 пикселей
Высота : 812 пикселей
Соотношение сторон : 2,35:1
Режим частоты кадров : Постоянный
Частота кадров : 23,976 (24000/1001) кадра/сек
Стандарт вещания : Component
Цветовое пространство : YUV
Субдискретизация насыщенности : 4:2:0
Битовая глубина : 8 бит
Тип развёртки : Прогрессивная
Бит/(Пиксели*Кадры) : 0.166
Размер потока : 4,56 Гбайт (97%)
Заголовок : -=Anrif=-
Библиотека кодирования : x264 core 155
Настройки программы : cabac=1 / ref=4 / deblock=1:0:0 / analyse=0x3:0x3 / me=dia / subme=1 / psy=1 / psy_rd=1.00:0.00 / mixed_ref=0 / me_range=16 / chroma_me=1 / trellis=0 / 8x8dct=1 / cqm=1 / deadzone=21,11 / fast_pskip=1 / chroma_qp_offset=0 / threads=25 / lookahead_threads=4 / sliced_threads=0 / slices=1 / nr=0 / decimate=1 / interlaced=0 / minigop=0 / stitchable=1 / constrained_intra=0 / bframes=2 / b_pyramid=0 / b_adapt=0 / b_bias=0 / direct=1 / weightb=1 / open_gop=1 / weightp=0 / keyint=240 / keyint_min=23 / scenecut=40 / intra_refresh=0 / rc_lookahead=0 / rc=cbr / mbtree=0 / bitrate=7000 / ratetol=1.0 / qcomp=0.60 / qpmin=1 / qpmax=69 / qpstep=4 / vbv_maxrate=7000 / vbv_bufsize=7000 / nal_hrd=cbr / filler=1 / ip_ratio=1.40 / pb_ratio=1.30 / aq=1:1.00
Язык : Italian
Default : Да
Forced : Нет
Цветовой диапазон : Limited
Основные цвета : BT.709
Характеристики трансфера : BT.709
Коэффициенты матрицы : BT.709
Аудио
Идентификатор : 2
Формат : AC-3
Формат/Информация : Audio Coding 3
Коммерческое название : Dolby Digital
Идентификатор кодека : A_AC3
Продолжительность : 1 ч. 45 м.
Вид битрейта : Постоянный
Битрейт : 192 Кбит/сек
Каналы : 2 канала
Channel layout : L R
Частота : 48,0 КГц
Частота кадров : 31,250 кадров/сек (1536 SPF)
Метод сжатия : С потерями
Размер потока : 145 Мбайт (3%)
Заголовок : (MVO, Синема УС)
Язык : Russian
Service kind : Complete Main
Default : Да
Forced : Нет
Скриншоты: Все одноименные релизы в Клубе Время раздачи: с 18:00 до 24:00 (до первых 3-5 скачавших)
[Профиль] [ЛС]
Показать сообщения:    
Ответить на тему

Текущее время: 28-Фев 22:20

Часовой пояс: UTC ± 0



Вы не можете начинать темы
Вы не можете отвечать на сообщения
Вы не можете редактировать свои сообщения
Вы не можете удалять свои сообщения
Вы не можете голосовать в опросах
Вы не можете прикреплять файлы к сообщениям
Вы не можете скачивать файлы

[  Время выполнения: 0,037 сек  |  MySQL: 0,004 сек (11%) · 5 запр.  |  GZIP выкл  |  Память: 422,29 KB / 1,74 MB / 1,34 MB  |  Лимит: 13 17 18  ]