Долина дьявола / Escape The Field (2022) WEB-DLRip [H.264/1080p-LQ] [MVO, AD]

Ответить на тему
 
Автор Сообщение

admin ®

Пол: Не указан

Стаж: 4 месяца 27 дня

Сообщений: 10110

Создавать темы 30-Янв-2024 15:19

[Цитировать]

Долина дьявола / Escape The Field (2022) WEB-DLRip [H.264/1080p-LQ]
«The hunt is on»
- Производство: США / Anacapa Pictures, CR8IV DNA, Double Dutch International
Жанр: триллер
Режиссер: Эмерсон Мур
Продюсер: Джейсон Моринг, Майкл Филип, Эмерсон Мур
Актеры: Джордан Клер Роббинс, Тео Росси, Шейн Уэст, Тахира Шариф, Елена Джуатко, Джулиан Федер, Николь Кавалес, Диллон Ягерски, Кит Барнс
Описание:
Шестеро незнакомцев приходят в себя на кукурузном поле. Они не знают, как и почему там оказались, и зачем у каждого появилось по одному уникальному предмету. Пытаясь действовать сообща и разгадывая всё новые ребусы, они стараются выбраться из ловушки, когда на них нападает зловещее существо, загадочным образом связанное с энергией поля.
Рейтинг MPAA: R (лицам до 17 лет обязательно присутствие взрослого)
Дата мировой премьеры: 6 мая 2022
Дата российской премьеры: 7 июля 2022, «Экспонента»
Релиз от: Anrif
Продолжительность: 01:27:40
Качество видео: WEB-DLRip (1080p)
Перевод: Многоголосый, закадровый (MuzoBoz)
Язык озвучки: Русский
Субтитры: Отсутствуют
Реклама: Присутствует баннер!
Видео: AVC/H.264, 1918х800, 7000 kbps
Аудио: AС-3, 2 ch, 224 kbps

MediaInfo:

Общее
Уникальный идентификатор : 202920103428744400935930121678690725827 (0x98A8FD87A748866292F3A450E07C2FC3)
Полное имя : F:\[Anf].Escape.The.Field.(2022).WEB-DLRip.[1080p-LQ].mkv
Формат : Matroska
Версия формата : Version 4
Размер файла : 4,23 Гбайт
Продолжительность : 1 ч. 27 м.
Режим общего битрейта : Постоянный
Общий поток : 6 901 Кбит/сек
Название фильма : Долина дьявола / Escape The Field...(2022)
Дата кодирования : UTC 2022-05-08 19:02:50
Программа кодирования : mkvmerge v8.3.0 ('Over the Horizon') 64bit
Библиотека кодирования : libebml v1.3.1 + libmatroska v1.4.2
Обложка : Yes
Attachments : cover.jpg
Видео
Идентификатор : 1
Формат : AVC
Формат/Информация : Advanced Video Codec
Профиль формата : High@L4.1
Настройки формата : CABAC / 4 Ref Frames
Параметр CABAC формата : Да
Параметр RefFrames формата : 4 кадра
Идентификатор кодека : V_MPEG4/ISO/AVC
Продолжительность : 1 ч. 27 м.
Вид битрейта : Постоянный
Битрейт : 7 000 Кбит/сек
Ширина : 1 918 пикселей
Высота : 800 пикселей
Соотношение сторон : 2,40:1
Соотношение сторон в оригинале : 2,40:1
Режим частоты кадров : Постоянный
Частота кадров : 23,976 (24000/1001) кадра/сек
Стандарт вещания : Component
Цветовое пространство : YUV
Субдискретизация насыщенности : 4:2:0
Битовая глубина : 8 бит
Тип развёртки : Прогрессивная
Бит/(Пиксели*Кадры) : 0.190
Размер потока : 4,09 Гбайт (97%)
Заголовок : -=Anrif=-
Язык : English
Default : Да
Forced : Да
Цветовой диапазон : Limited
Основные цвета : BT.709
Характеристики трансфера : BT.709
Коэффициенты матрицы : BT.709
Аудио
Идентификатор : 2
Формат : AC-3
Формат/Информация : Audio Coding 3
Коммерческое название : Dolby Digital
Идентификатор кодека : A_AC3
Продолжительность : 1 ч. 27 м.
Вид битрейта : Постоянный
Битрейт : 224 Кбит/сек
Каналы : 2 канала
Channel layout : L R
Частота : 48,0 КГц
Частота кадров : 31,250 кадров/сек (1536 SPF)
Метод сжатия : С потерями
Размер потока : 140 Мбайт (3%)
Заголовок : [MVO, MuzoBoz]
Язык : Russian
Service kind : Complete Main
Default : Да
Forced : Да
Скриншоты: Все одноименные релизы в Клубе Время раздачи: с 18:00 до 24:00 (до первых 3-5 скачавших)
[Профиль] [ЛС]
Показать сообщения:    
Ответить на тему

Текущее время: 25-Фев 17:34

Часовой пояс: UTC ± 0



Вы не можете начинать темы
Вы не можете отвечать на сообщения
Вы не можете редактировать свои сообщения
Вы не можете удалять свои сообщения
Вы не можете голосовать в опросах
Вы не можете прикреплять файлы к сообщениям
Вы не можете скачивать файлы

[  Время выполнения: 0,043 сек  |  MySQL: 0,004 сек (9%) · 3 запр.  |  GZIP выкл  |  Память: 422,29 KB / 1,74 MB / 1,34 MB  |  Лимит: 10 9 9  ]