Здравствуй, папочка! / Kinsenas, katapusan (2022) WEBRip [MVO, AD]

Ответить на тему
 
Автор Сообщение

admin ®

Пол: Не указан

Стаж: 4 месяца 27 дня

Сообщений: 10110

Создавать темы 30-Янв-2024 15:19

[Цитировать]

Здравствуй, папочка! / Kinsenas, katapusan (2022) WEBRip
«Hello, Daddy!»
- Производство: Филиппины / Viva Films
Жанр: триллер, эротика
Режиссер: Дж.Б. Сан Педро
Актеры: Аянна Мисола, Джамилла Обиспо, Джао Мапа, Си Джей Харавата, Ракель Монтеза, Кир Легаспи
Описание:
Мужчина влюбляется в одноклассницу своей дочери, и у них начинается бурный роман. Когда он начинает думать лишь о ней, всё встает с ног на голову.
Дата мировой премьеры: 4 февраля 2022
Продолжительность: 01:27:04
Качество видео: WEBRip
Перевод: Многоголосый, закадровый (Синема УС)
Язык озвучки: Русский
Субтитры: Отсутствуют
Реклама: Присутствует баннер!
Видео: XviD, 720x304, 1930 kbps
Аудио: AC-3, 2 ch, 192 kbps

MediaInfo:

Общее
Полное имя : F:\[Anf].Kinsenas.katapusan.(2022).WEBRip.avi
Формат : AVI
Формат/Информация : Audio Video Interleave
Размер файла : 1,30 Гбайт
Продолжительность : 1 ч. 27 м.
Общий поток : 2 132 Кбит/сек
Название фильма : Здравствуй, папочка! / Kinsenas, katapusan
Режиссёр : Дж.Б. Сан Педро
Жанр : триллер, эротика
Тема : WEBRip
Дата записи : 2022
Программа кодирования : VirtualDubMod 1.5.10.3 | www.virtualdub-fr.org || (build 2550/release)
Библиотека кодирования : VirtualDubMod build 2550/release
Авторское право : Viva Films
Примечание : RIP BY -=ANRIF=-
Видео
Идентификатор : 0
Формат : MPEG-4 Visual
Профиль формата : Advanced Simple@L5
Настройки формата : BVOP1
Параметр BVOP формата : 1
Параметр QPel формата : Нет
Параметр GMC формата : Без точки перехода
Параметр матрицы формата : Default (MPEG)
Идентификатор кодека : XVID
Идентификатор кодека/Подсказка : XviD
Продолжительность : 1 ч. 27 м.
Битрейт : 1 930 Кбит/сек
Ширина : 720 пикселей
Высота : 304 пикселя
Соотношение сторон : 2,35:1
Частота кадров : 23,976 (24000/1001) кадра/сек
Цветовое пространство : YUV
Субдискретизация насыщенности : 4:2:0
Битовая глубина : 8 бит
Тип развёртки : Прогрессивная
Метод сжатия : С потерями
Бит/(Пиксели*Кадры) : 0.368
Размер потока : 1,17 Гбайт (91%)
Библиотека кодирования : XviD 73
Аудио
Идентификатор : 1
Формат : AC-3
Формат/Информация : Audio Coding 3
Коммерческое название : Dolby Digital
Идентификатор кодека : 2000
Продолжительность : 1 ч. 27 м.
Вид битрейта : Постоянный
Битрейт : 192 Кбит/сек
Каналы : 2 канала
Channel layout : L R
Частота : 48,0 КГц
Частота кадров : 31,250 кадров/сек (1536 SPF)
Метод сжатия : С потерями
Размер потока : 120 Мбайт (9%)
Выравнивание : Разделение по промежуткам
Продолжительность промежутка : 42 мс. (1,00 видеокадр)
Время предзагрузки промежутка : 500 мс.
Заголовок : Русский [MVO, Синема УС]
Service kind : Complete Main
Скриншоты: Все одноименные релизы в Клубе Время раздачи: с 18:00 до 24:00 (до первых 3-5 скачавших)
[Профиль] [ЛС]
Показать сообщения:    
Ответить на тему

Текущее время: 25-Фев 21:36

Часовой пояс: UTC ± 0



Вы не можете начинать темы
Вы не можете отвечать на сообщения
Вы не можете редактировать свои сообщения
Вы не можете удалять свои сообщения
Вы не можете голосовать в опросах
Вы не можете прикреплять файлы к сообщениям
Вы не можете скачивать файлы

[  Время выполнения: 0,036 сек  |  MySQL: 0,002 сек (6%) · 3 запр.  |  GZIP выкл  |  Память: 422,29 KB / 1,74 MB / 1,34 MB  |  Лимит: 11 14 14  ]