Главная роль / Competencia oficial (2021) WEBRip [H.264/1080p-LQ] [MVO, AD]

Ответить на тему
 
Автор Сообщение

admin ®

Пол: Не указан

Стаж: 4 месяца 27 дня

Сообщений: 10110

Создавать темы 30-Янв-2024 15:19

[Цитировать]

Главная роль / Competencia oficial (2021) WEBRip [H.264/1080p-LQ] «Poner el arte a competir es atroz»- Производство: Испания, Аргентина / The MediaPro Studio
Жанр: драма, комедия
Режиссер: Мариано Кон, Гастон Дюпра
Актеры: Пенелопа Крус, Антонио Бандерас, Оскар Мартинес, Хосе Луис Гомес, Маноло Соло, Нагоре Арамбуру, Ирена Эсколар, Пилар Кастро, Кольдо Олабарри, Хуан Грандинетти
Описание:
Два известных актера поссорились на съемочной площадке картины, финансируемой миллионером с дурной славой. Чтобы спасти картину, тот нанимает знаменитую эксцентричную постановщицу.
Возраст: 16+ (зрителям, достигшим 16 лет)
Рейтинг MPAA: R (лицам до 17 лет обязательно присутствие взрослого)
Дата мировой премьеры: 4 сентября 2021, ...
Дата российской премьеры: 16 июня 2022, «Про:взгляд»
Продолжительность: 01:55:18
Качество видео: WEBRip
Перевод: Многоголосый, закадровый (MUZOBOZ)
Язык озвучки: Русский
Субтитры: Английские (hardsub)
Реклама: Присутствует реклама аудио, видео, баннер
Видео: AVC/H.264, 1920x804 (2.40:1), ~6000 Kbps
Аудио: AC3, 2 ch, 384 Kbps

MediaInfo:

Общее
Уникальный идентификатор : 270456971384913662344338336871887553357 (0xCB781E3452118F9217266DB63866434D)
Полное имя : F:\Competencia oficial (2021).mkv
Формат : Matroska
Версия формата : Version 4
Размер файла : 5,15 Гбайт
Продолжительность : 1 ч. 55 м.
Режим общего битрейта : Постоянный
Общий поток : 6 394 Кбит/сек
Дата кодирования : UTC 2022-05-10 03:49:09
Программа кодирования : mkvmerge v26.0.0 ('In The Game') 32-bit
Библиотека кодирования : libebml v1.3.6 + libmatroska v1.4.9 / Lavf58.76.100
Видео
Идентификатор : 1
Формат : AVC
Формат/Информация : Advanced Video Codec
Профиль формата : High@L4.1
Настройки формата : CABAC / 4 Ref Frames
Параметр CABAC формата : Да
Параметр RefFrames формата : 4 кадра
Идентификатор кодека : V_MPEG4/ISO/AVC
Продолжительность : 1 ч. 55 м.
Вид битрейта : Постоянный
Битрейт : 6 008 Кбит/сек
Номинальный битрейт : 7 000 Кбит/сек
Ширина : 1 920 пикселей
Высота : 804 пикселя
Соотношение сторон : 2,40:1
Режим частоты кадров : Постоянный
Частота кадров : 23,976 (24000/1001) кадра/сек
Стандарт вещания : Component
Цветовое пространство : YUV
Субдискретизация насыщенности : 4:2:0
Битовая глубина : 8 бит
Тип развёртки : Прогрессивная
Бит/(Пиксели*Кадры) : 0.162
Размер потока : 4,84 Гбайт (94%)
Библиотека кодирования : x264 core 155
Настройки программы : cabac=1 / ref=4 / deblock=1:0:0 / analyse=0x3:0x3 / me=dia / subme=1 / psy=1 / psy_rd=1.00:0.00 / mixed_ref=0 / me_range=16 / chroma_me=1 / trellis=0 / 8x8dct=1 / cqm=1 / deadzone=21,11 / fast_pskip=1 / chroma_qp_offset=0 / threads=25 / lookahead_threads=4 / sliced_threads=0 / slices=1 / nr=0 / decimate=1 / interlaced=0 / minigop=0 / stitchable=1 / constrained_intra=0 / bframes=2 / b_pyramid=0 / b_adapt=0 / b_bias=0 / direct=1 / weightb=1 / open_gop=1 / weightp=0 / keyint=240 / keyint_min=23 / scenecut=40 / intra_refresh=0 / rc_lookahead=0 / rc=cbr / mbtree=0 / bitrate=7000 / ratetol=1.0 / qcomp=0.60 / qpmin=1 / qpmax=69 / qpstep=4 / vbv_maxrate=7000 / vbv_bufsize=7000 / nal_hrd=cbr / filler=1 / ip_ratio=1.40 / pb_ratio=1.30 / aq=1:1.00
Default : Да
Forced : Нет
Цветовой диапазон : Limited
Основные цвета : BT.709
Характеристики трансфера : BT.709
Коэффициенты матрицы : BT.709
Аудио
Идентификатор : 2
Формат : AC-3
Формат/Информация : Audio Coding 3
Коммерческое название : Dolby Digital
Идентификатор кодека : A_AC3
Продолжительность : 1 ч. 55 м.
Вид битрейта : Постоянный
Битрейт : 384 Кбит/сек
Каналы : 2 канала
Channel layout : L R
Частота : 48,0 КГц
Частота кадров : 31,250 кадров/сек (1536 SPF)
Метод сжатия : С потерями
Размер потока : 317 Мбайт (6%)
Service kind : Complete Main
Default : Да
Forced : Нет
Скриншоты:
Все одноименные релизы в КлубеВремя раздачи: 24/7 (круглосуточно) (минимум до появления первых 3-5 скачавших)
[Профиль] [ЛС]
Показать сообщения:    
Ответить на тему

Текущее время: 25-Фев 21:42

Часовой пояс: UTC ± 0



Вы не можете начинать темы
Вы не можете отвечать на сообщения
Вы не можете редактировать свои сообщения
Вы не можете удалять свои сообщения
Вы не можете голосовать в опросах
Вы не можете прикреплять файлы к сообщениям
Вы не можете скачивать файлы

[  Время выполнения: 0,038 сек  |  MySQL: 0,004 сек (10%) · 3 запр.  |  GZIP выкл  |  Память: 422,29 KB / 1,74 MB / 1,34 MB  |  Лимит: 15 14 14  ]