Фантастические твари: Тайны Дамблдора / Fantastic Beasts: The Secrets of Dumbledore (2022) WEBRip [H.264/1080p-LQ] [MVO] [AD]

Ответить на тему
 
Автор Сообщение

admin ®

Пол: Не указан

Стаж: 4 месяца 27 дня

Сообщений: 10110

Создавать темы 30-Янв-2024 15:19

[Цитировать]

Фантастические твари: Тайны Дамблдора / Fantastic Beasts: The Secrets of Dumbledore (2022) WEBRip [H.264/1080p-LQ]- Производство: Великобритания, США / Heyday Films, Warner Bros.
Жанр: фэнтези, приключения, семейный
Режиссер: Дэвид Йейтс
Актеры: Эдди Редмэйн, Джуд Лоу, Эзра Миллер, Дэн Фоглер, Элисон Судол, Каллум Тернер, Джессика Уильямс, Кэтрин Уотерстон, Мадс Миккельсен, Оливер Мазуччи
Описание:
Профессор Альбус Дамблдор узнает, что могущественный тёмный волшебник Геллерт Грин-де-Вальд планирует захватить власть над миром. Понимая, что не сможет остановить его в одиночку, Дамблдор просит магозоолога Ньюта Саламандера возглавить команду выдающихся волшебников и одного отважного магла-пекаря. Им предстоят невероятно опасные приключения, встреча со старыми и укрощение новых магических существ и борьба со сторонниками Грин-де-Вальда, которых становится все больше.
Дата мировой премьеры: 6 апреля 2022
Возраст: 12+ (зрителям, достигшим 12 лет)
Рейтинг MPAA: PG-13 (детям до 13 лет просмотр нежелателен)
Продолжительность: 02:21:06
Качество видео: WEBRip
Перевод: Многоголосый любительский (MUZOBOZ)
Субтитры: Корейские (хардсаб)
Реклама: Присутствует баннер.
Видео: AVC/H.264, 1920x800, ~7000 Kbps
Аудио: AC3, 2 ch, 384 Kbps

MediaInfo:

Общее
Полное имя : D:\NNM\Фантастические твари\Fantastic.Beasts.The.Secrets.of.Dumbledore.2022.WEBRip.1080p-LQ.mkv
Формат : Matroska
Версия формата : Version 2
Размер файла : 7,22 Гбайт
Продолжительность : 2 ч. 21 м.
Режим общего битрейта : Постоянный
Общий поток : 7 325 Кбит/сек
Программа кодирования : libmatroska 1.4.1
Библиотека кодирования : SolveigMM Matroska Muxer Version 1.0.1904.23
Видео
Идентификатор : 1
Формат : AVC
Формат/Информация : Advanced Video Codec
Профиль формата : High@L4.1
Настройки формата : CABAC / 4 Ref Frames
Параметр CABAC формата : Да
Параметр RefFrames формата : 4 кадра
Идентификатор кодека : V_MPEG4/ISO/AVC
Продолжительность : 2 ч. 21 м.
Вид битрейта : Постоянный
Битрейт : 7 000 Кбит/сек
Ширина : 1 920 пикселей
Высота : 800 пикселей
Соотношение сторон : 2,40:1
Режим частоты кадров : Постоянный
Частота кадров : 23,976 (24000/1001) кадра/сек
Стандарт вещания : Component
Цветовое пространство : YUV
Субдискретизация насыщенности : 4:2:0
Битовая глубина : 8 бит
Тип развёртки : Прогрессивная
Бит/(Пиксели*Кадры) : 0.190
Размер потока : 6,70 Гбайт (93%)
Default : Нет
Forced : Нет
Цветовой диапазон : Limited
Основные цвета : BT.709
Характеристики трансфера : BT.709
Коэффициенты матрицы : BT.709
Аудио
Идентификатор : 2
Формат : AC-3
Формат/Информация : Audio Coding 3
Коммерческое название : Dolby Digital
Идентификатор кодека : A_AC3
Продолжительность : 2 ч. 21 м.
Вид битрейта : Постоянный
Битрейт : 384 Кбит/сек
Каналы : 2 канала
Channel layout : L R
Частота : 48,0 КГц
Частота кадров : 31,250 кадров/сек (1536 SPF)
Метод сжатия : С потерями
Размер потока : 388 Мбайт (5%)
Язык : Russian
Service kind : Complete Main
Default : Нет
Forced : Нет
Скриншоты: Все одноименные релизы в КлубеВремя раздачи: 24/7 (до 10-ти скачавших)
[Профиль] [ЛС]
Показать сообщения:    
Ответить на тему

Текущее время: 25-Фев 19:24

Часовой пояс: UTC ± 0



Вы не можете начинать темы
Вы не можете отвечать на сообщения
Вы не можете редактировать свои сообщения
Вы не можете удалять свои сообщения
Вы не можете голосовать в опросах
Вы не можете прикреплять файлы к сообщениям
Вы не можете скачивать файлы

[  Время выполнения: 0,038 сек  |  MySQL: 0,003 сек (7%) · 3 запр.  |  GZIP выкл  |  Память: 422,29 KB / 1,74 MB / 1,34 MB  |  Лимит: 9 11 14  ]