Коммандо / The Commando (2022) WEB-DLRip [H.264/720p-LQ] [MVO, AD]

Ответить на тему
 
Автор Сообщение

admin ®

Пол: Не указан

Стаж: 5 месяца

Сообщений: 10110

Создавать темы 30-Янв-2024 15:18

[Цитировать]

Коммандо / The Commando (2022) WEB-DLRip [H.264/720p-LQ]
«Only one will survive»
- Производство: США / Buffalo 8 Productions, BondIt Media Capital, Premiere Entertainment Group
Жанр: боевик, триллер
Режиссер: Азиф Акбар
Продюсер: Азиф Акбар, Аль Браво, Кодзи Стивен Сакаи
Актеры: Микки Рурк, Джефф Фэйи, Майкл Джей Уайт, Брендан Фер, Джон Инос III, Джанни Капальди, Дональд Серроне, Дэвид Лиа, Сэм Тан, Джозеф Ли Майкл
Описание:
Агент управления по борьбе с наркотиками возвращается домой после неудачной миссии, ставшей для него травматичным опытом. Несмотря на это, ему всё равно придется защищать свой дом от вторжения недавно освобожденного преступника, который пришел за спрятанной в доме агента заначкой.
Рейтинг MPAA: R (лицам до 17 лет обязательно присутствие взрослого)
Дата мировой премьеры: 7 января 2022
Релиз от: Anrif
Продолжительность: 01:32:20
Качество видео: WEB-DLRip
Перевод: Любительский многоголосый (MuzoBoz)
Язык озвучки: Русский
Субтитры: Отсутствуют
Реклама: Присутствует баннер!
Видео: AVC/H.264, 1280х536, ~8201 kbps
Аудио: AС3, 2 ch, 448 kbps

MediaInfo:

Общее
Уникальный идентификатор : 193689067014279836064044634322532503112 (0x91B7284BC7E06C028833495ACDD70E48)
Полное имя : F:\[Anf].The.Commando.(2021).WEB-DLRip[720p-LQ].mkv
Формат : Matroska
Версия формата : Version 4
Размер файла : 5,58 Гбайт
Продолжительность : 1 ч. 32 м.
Режим общего битрейта : Постоянный
Общий поток : 8 651 Кбит/сек
Название фильма : Коммандос / The Commando_(2022)
Дата кодирования : UTC 2022-04-09 11:25:04
Программа кодирования : mkvmerge v8.3.0 ('Over the Horizon') 64bit
Библиотека кодирования : libebml v1.3.1 + libmatroska v1.4.2
Обложка : Yes
Attachments : cover.jpg
Видео
Идентификатор : 1
Формат : AVC
Формат/Информация : Advanced Video Codec
Профиль формата : High@L4.1
Настройки формата : CABAC / 4 Ref Frames
Параметр CABAC формата : Да
Параметр RefFrames формата : 4 кадра
Идентификатор кодека : V_MPEG4/ISO/AVC
Продолжительность : 1 ч. 32 м.
Вид битрейта : Постоянный
Битрейт : 8 201 Кбит/сек
Номинальный битрейт : 9 000 Кбит/сек
Ширина : 1 280 пикселей
Высота : 536 пикселей
Соотношение сторон : 2,40:1
Режим частоты кадров : Постоянный
Частота кадров : 23,976 (24000/1001) кадра/сек
Стандарт вещания : Component
Цветовое пространство : YUV
Субдискретизация насыщенности : 4:2:0
Битовая глубина : 8 бит
Тип развёртки : Прогрессивная
Бит/(Пиксели*Кадры) : 0.499
Размер потока : 5,29 Гбайт (95%)
Заголовок : -=Anrif=-
Библиотека кодирования : x264 core 155
Настройки программы : cabac=1 / ref=4 / deblock=1:0:0 / analyse=0x3:0x3 / me=dia / subme=1 / psy=1 / psy_rd=1.00:0.00 / mixed_ref=0 / me_range=16 / chroma_me=1 / trellis=0 / 8x8dct=1 / cqm=1 / deadzone=21,11 / fast_pskip=1 / chroma_qp_offset=0 / threads=17 / lookahead_threads=2 / sliced_threads=0 / slices=1 / nr=0 / decimate=1 / interlaced=0 / minigop=0 / stitchable=1 / constrained_intra=0 / bframes=2 / b_pyramid=0 / b_adapt=0 / b_bias=0 / direct=1 / weightb=1 / open_gop=1 / weightp=0 / keyint=240 / keyint_min=23 / scenecut=40 / intra_refresh=0 / rc_lookahead=0 / rc=cbr / mbtree=0 / bitrate=9000 / ratetol=1.0 / qcomp=0.60 / qpmin=1 / qpmax=69 / qpstep=4 / vbv_maxrate=9000 / vbv_bufsize=9000 / nal_hrd=cbr / filler=1 / ip_ratio=1.40 / pb_ratio=1.30 / aq=1:1.00
Язык : English
Default : Да
Forced : Нет
Цветовой диапазон : Limited
Основные цвета : BT.709
Характеристики трансфера : BT.709
Коэффициенты матрицы : BT.709
Аудио
Идентификатор : 2
Формат : AC-3
Формат/Информация : Audio Coding 3
Коммерческое название : Dolby Digital
Идентификатор кодека : A_AC3
Продолжительность : 1 ч. 32 м.
Вид битрейта : Постоянный
Битрейт : 448 Кбит/сек
Каналы : 2 канала
Channel layout : L R
Частота : 48,0 КГц
Частота кадров : 31,250 кадров/сек (1536 SPF)
Метод сжатия : С потерями
Размер потока : 296 Мбайт (5%)
Заголовок : (DVO, MuzoBoz)
Язык : Russian
Service kind : Complete Main
Default : Да
Forced : Нет
Скриншоты: Все одноименные релизы в Клубе Время раздачи: с 18:00 до 24:00 (до первых 3-5 скачавших)
[Профиль] [ЛС]
Показать сообщения:    
Ответить на тему

Текущее время: 28-Фев 21:58

Часовой пояс: UTC ± 0



Вы не можете начинать темы
Вы не можете отвечать на сообщения
Вы не можете редактировать свои сообщения
Вы не можете удалять свои сообщения
Вы не можете голосовать в опросах
Вы не можете прикреплять файлы к сообщениям
Вы не можете скачивать файлы

[  Время выполнения: 0,041 сек  |  MySQL: 0,003 сек (7%) · 3 запр.  |  GZIP выкл  |  Память: 422,29 KB / 1,74 MB / 1,36 MB  |  Лимит: 20 20 17  ]