Игры агентов / Агентская игра / Игра в агента / Agent Game (2022) WEB-DLRip [MVO, AD]

Ответить на тему
 
Автор Сообщение

admin ®

Пол: Не указан

Стаж: 4 месяца 27 дня

Сообщений: 10110

Создавать темы 30-Янв-2024 15:18

[Цитировать]

Игры агентов / Агентская игра / Игра в агента / Agent Game (2022) WEB-DLRip - Производство: США / Taylor & Dodge, Project Infinity
Жанр: триллер, боевик
Режиссер: Grant S. Johnson
Продюсер: Тайлер В. Конни, Николас Эриксон, Барбара Гривз
Актеры: Мэл Гибсон, Джейсон Айзекс, Дермот Малруни, Адан Канто, Кэти Кэссиди, Баркхад Абди, Риз Койро, Энни Илонзе, Мэтт Риди, Блу Кимбл
Описание:
Офицер ЦРУ Харрис участвует в миссиях по захвату иностранных граждан и доставке их в секретное место для допроса. Харриса обвиняют в убийстве шефа и задержанного во время допроса и он вынужден бежать от группы оперативников, посланных за ним во главе с безжалостным двойным агентом Олсеном и его подручным Виссером.
Рейтинг MPAA: R (лицам до 17 лет обязательно присутствие взрослого)
Дата мировой премьеры: 8 апреля 2022
Релиз от: Anrif
Продолжительность: 01:29:19
Качество видео: WEB-DLRip
Перевод: Любительский многоголосый (AlphaProject)
Язык озвучки: Русский
Субтитры: Отсутствуют
Реклама: Присутствует баннер!
Видео: XviD, 720х392, 1965 kbps
Аудио: AС-3, 2 ch, 384 kbps

MediaInfo:

Общее
Полное имя : F:\[Anf].Agent.Game.(2022).WEB-DLRip.avi
Формат : AVI
Формат/Информация : Audio Video Interleave
Размер файла : 1,47 Гбайт
Продолжительность : 1 ч. 29 м.
Общий поток : 2 358 Кбит/сек
Название фильма : Агентская игра / Agent Game
Режиссёр : Grant S. Johnson
Жанр : триллер, боевик
Тема : WEB-DLRip
Дата записи : 2022
Программа кодирования : VirtualDubMod 1.5.10.3 | www.virtualdub-fr.org || (build 2550/release)
Библиотека кодирования : VirtualDubMod build 2550/release
Авторское право : Taylor & Dodge, Project Infinity
Примечание : RIP BY -=ANRIF=-
Видео
Идентификатор : 0
Формат : MPEG-4 Visual
Профиль формата : Advanced Simple@L5
Настройки формата : BVOP1
Параметр BVOP формата : 1
Параметр QPel формата : Нет
Параметр GMC формата : Без точки перехода
Параметр матрицы формата : Default (MPEG)
Идентификатор кодека : XVID
Идентификатор кодека/Подсказка : XviD
Продолжительность : 1 ч. 29 м.
Битрейт : 1 965 Кбит/сек
Ширина : 720 пикселей
Высота : 392 пикселя
Соотношение сторон : 1,85:1
Частота кадров : 23,976 (24000/1001) кадра/сек
Цветовое пространство : YUV
Субдискретизация насыщенности : 4:2:0
Битовая глубина : 8 бит
Тип развёртки : Прогрессивная
Метод сжатия : С потерями
Бит/(Пиксели*Кадры) : 0.290
Размер потока : 1,23 Гбайт (83%)
Библиотека кодирования : XviD 73
Аудио
Идентификатор : 1
Формат : AC-3
Формат/Информация : Audio Coding 3
Коммерческое название : Dolby Digital
Идентификатор кодека : 2000
Продолжительность : 1 ч. 29 м.
Вид битрейта : Постоянный
Битрейт : 384 Кбит/сек
Каналы : 2 канала
Channel layout : L R
Частота : 48,0 КГц
Частота кадров : 31,250 кадров/сек (1536 SPF)
Метод сжатия : С потерями
Размер потока : 245 Мбайт (16%)
Выравнивание : Разделение по промежуткам
Продолжительность промежутка : 42 мс. (1,00 видеокадр)
Время предзагрузки промежутка : 500 мс.
Заголовок : Русский (MVO, AlphaProject)
Service kind : Complete Main
Скриншоты: Все одноименные релизы в Клубе Время раздачи: с 18:00 до 24:00 (до первых 3-5 скачавших)
[Профиль] [ЛС]
Показать сообщения:    
Ответить на тему

Текущее время: 25-Фев 21:32

Часовой пояс: UTC ± 0



Вы не можете начинать темы
Вы не можете отвечать на сообщения
Вы не можете редактировать свои сообщения
Вы не можете удалять свои сообщения
Вы не можете голосовать в опросах
Вы не можете прикреплять файлы к сообщениям
Вы не можете скачивать файлы

[  Время выполнения: 0,039 сек  |  MySQL: 0,002 сек (6%) · 3 запр.  |  GZIP выкл  |  Память: 422,29 KB / 1,74 MB / 1,34 MB  |  Лимит: 17 16 15  ]