Призрак монахини из Борли / The Ghosts of Borley Rectory (2021) WEB-DLRip [H.264/1080p-LQ] [Line, AD]

Ответить на тему
 
Автор Сообщение

admin ®

Пол: Не указан

Стаж: 5 месяца 1 день

Сообщений: 10110

Создавать темы 30-Янв-2024 15:18

[Цитировать]

Призрак монахини из Борли / The Ghosts of Borley Rectory (2021) WEB-DLRip [H.264/1080p-LQ]
«Based on Terrifying True Events at Britain's Most Haunted House»
- Производство: Великобритания / Greenway Entertainment, ChampDog Films, GlobalWatch Films
Жанр: ужасы, триллер, драма, детектив
Режиссер: Стивен М. Смит
Продюсер: Стивен М. Смит, Луиса Уоррен, Пол Дж. Эндрюс
Актеры: Тоби Винн-Дэвис, Джулиан Сэндс, Колин Бэйкер, Кристофер Эллисон, Тойа Уиллкокс, Рис Путинас, Лейла Котори, Луиса Уоррен, Ричард Харфст, Ли Хэнкок
Описание:
1937 год. Приходской священник и его супруга прибывают в деревеньку Борли для служения в местной церкви. Они надеются на спокойную и размеренную жизнь, однако дом, в котором размещают супругов, оказывается полон пугающих тайн. Загадочные звуки, видения, и призрак монахини, который твердит о проклятии, грозят свести благочестивую пару с ума.
Слухи о неблагополучном доме разносятся далеко за пределы Борли и обращают на себя внимание Гарри Прайса. Тот радуется новой возможности доказать существование потустороннего мира и решает поселиться в доме священника, чтобы исследовать мистический феномен. Но он и не догадывается, насколько глубоко ему предстоит погрузиться во тьму.
Возраст: 18+ (зрителям, достигшим 18 лет. запрещено для детей)
Дата мировой премьеры: 11 октября 2021
Дата российской премьеры: 7 апреля 2022, «Кинологистика»
Релиз от: Anrif
Продолжительность: 01:19:04
Качество видео: WEB-DLRip (1080p)
Перевод: Дублированный (Line)
Язык озвучки: Русский
Субтитры: Отсутствуют
Реклама: Присутствует баннер!
Видео: AVC/H.264, 1920х1080, 6102 kbps
Аудио: AС-3, 2 ch, 448 kbps

MediaInfo:

Общее
Уникальный идентификатор : 238789828184419142126496893589795983174 (0xB3A53F804E5C0EED91202F5279ED4F46)
Полное имя : F:\[Anf].The.Ghosts.of.Borley.Rectory.(2021).WEB-DLRip.[1080p-LQ].mkv
Формат : Matroska
Версия формата : Version 4
Размер файла : 3,62 Гбайт
Продолжительность : 1 ч. 19 м.
Режим общего битрейта : Постоянный
Общий поток : 6 552 Кбит/сек
Название фильма : Призрак монахини из Борли / The Ghosts of Borley Rectory_(2021)
Дата кодирования : UTC 2022-04-11 21:46:11
Программа кодирования : mkvmerge v8.3.0 ('Over the Horizon') 64bit
Библиотека кодирования : libebml v1.3.1 + libmatroska v1.4.2
Обложка : Yes
Attachments : cover.jpg
Видео
Идентификатор : 1
Формат : AVC
Формат/Информация : Advanced Video Codec
Профиль формата : High@L4.1
Настройки формата : CABAC / 4 Ref Frames
Параметр CABAC формата : Да
Параметр RefFrames формата : 4 кадра
Идентификатор кодека : V_MPEG4/ISO/AVC
Продолжительность : 1 ч. 19 м.
Вид битрейта : Постоянный
Битрейт : 6 102 Кбит/сек
Номинальный битрейт : 7 000 Кбит/сек
Ширина : 1 920 пикселей
Высота : 1 080 пикселей
Соотношение сторон : 16:9
Режим частоты кадров : Постоянный
Частота кадров : 23,976 (24000/1001) кадра/сек
Стандарт вещания : Component
Цветовое пространство : YUV
Субдискретизация насыщенности : 4:2:0
Битовая глубина : 8 бит
Тип развёртки : Прогрессивная
Бит/(Пиксели*Кадры) : 0.123
Размер потока : 3,37 Гбайт (93%)
Заголовок : -=Anrif=-
Библиотека кодирования : x264 core 155
Настройки программы : cabac=1 / ref=4 / deblock=1:0:0 / analyse=0x3:0x3 / me=dia / subme=1 / psy=1 / psy_rd=1.00:0.00 / mixed_ref=0 / me_range=16 / chroma_me=1 / trellis=0 / 8x8dct=1 / cqm=1 / deadzone=21,11 / fast_pskip=1 / chroma_qp_offset=0 / threads=34 / lookahead_threads=5 / sliced_threads=0 / slices=1 / nr=0 / decimate=1 / interlaced=0 / minigop=0 / stitchable=1 / constrained_intra=0 / bframes=2 / b_pyramid=0 / b_adapt=0 / b_bias=0 / direct=1 / weightb=1 / open_gop=1 / weightp=0 / keyint=240 / keyint_min=23 / scenecut=40 / intra_refresh=0 / rc_lookahead=0 / rc=cbr / mbtree=0 / bitrate=7000 / ratetol=1.0 / qcomp=0.60 / qpmin=1 / qpmax=69 / qpstep=4 / vbv_maxrate=7000 / vbv_bufsize=7000 / nal_hrd=cbr / filler=1 / ip_ratio=1.40 / pb_ratio=1.30 / aq=1:1.00
Язык : English
Default : Да
Forced : Нет
Цветовой диапазон : Limited
Основные цвета : BT.709
Характеристики трансфера : BT.709
Коэффициенты матрицы : BT.709
Аудио
Идентификатор : 2
Формат : AC-3
Формат/Информация : Audio Coding 3
Коммерческое название : Dolby Digital
Идентификатор кодека : A_AC3
Продолжительность : 1 ч. 19 м.
Вид битрейта : Постоянный
Битрейт : 448 Кбит/сек
Каналы : 2 канала
Channel layout : L R
Частота : 48,0 КГц
Частота кадров : 31,250 кадров/сек (1536 SPF)
Метод сжатия : С потерями
Размер потока : 253 Мбайт (7%)
Заголовок : (DUB, Line)
Язык : Russian
Service kind : Complete Main
Default : Да
Forced : Нет
Скриншоты: Все одноименные релизы в Клубе Время раздачи: с 18:00 до 24:00 (до первых 3-5 скачавших)
[Профиль] [ЛС]
Показать сообщения:    
Ответить на тему

Текущее время: 29-Фев 12:00

Часовой пояс: UTC ± 0



Вы не можете начинать темы
Вы не можете отвечать на сообщения
Вы не можете редактировать свои сообщения
Вы не можете удалять свои сообщения
Вы не можете голосовать в опросах
Вы не можете прикреплять файлы к сообщениям
Вы не можете скачивать файлы

[  Время выполнения: 0,033 сек  |  MySQL: 0,005 сек (14%) · 5 запр.  |  GZIP выкл  |  Память: 422,29 KB / 1,72 MB / 1,35 MB  |  Лимит: 6 7 9  ]