Призрак монахини из Борли / The Ghosts of Borley Rectory (2021) WEB-DLRip [Line, AD]

Ответить на тему
 
Автор Сообщение

admin ®

Пол: Не указан

Стаж: 6 месяца 22 дня

Сообщений: 11520

Создавать темы 30-Янв-2024 15:17

[Цитировать]

Призрак монахини из Борли / The Ghosts of Borley Rectory (2021) WEB-DLRip
«Based on Terrifying True Events at Britain's Most Haunted House»
- Производство: Великобритания / Greenway Entertainment, ChampDog Films, GlobalWatch Films
Жанр: ужасы, триллер, драма, детектив
Режиссер: Стивен М. Смит
Продюсер: Стивен М. Смит, Луиса Уоррен, Пол Дж. Эндрюс
Актеры: Тоби Винн-Дэвис, Джулиан Сэндс, Колин Бэйкер, Кристофер Эллисон, Тойа Уиллкокс, Рис Путинас, Лейла Котори, Луиса Уоррен, Ричард Харфст, Ли Хэнкок
Описание:
1937 год. Приходской священник и его супруга прибывают в деревеньку Борли для служения в местной церкви. Они надеются на спокойную и размеренную жизнь, однако дом, в котором размещают супругов, оказывается полон пугающих тайн. Загадочные звуки, видения, и призрак монахини, который твердит о проклятии, грозят свести благочестивую пару с ума.
Слухи о неблагополучном доме разносятся далеко за пределы Борли и обращают на себя внимание Гарри Прайса. Тот радуется новой возможности доказать существование потустороннего мира и решает поселиться в доме священника, чтобы исследовать мистический феномен. Но он и не догадывается, насколько глубоко ему предстоит погрузиться во тьму.
Возраст: 18+ (зрителям, достигшим 18 лет. запрещено для детей)
Дата мировой премьеры: 11 октября 2021
Дата российской премьеры: 7 апреля 2022, «Кинологистика»
Релиз от: Anrif
Продолжительность: 01:19:04
Качество видео: WEB-DLRip
Перевод: Дублированный (Line)
Язык озвучки: Русский
Субтитры: Отсутствуют
Реклама: Присутствует баннер!
Видео: XviD, 720х408, 2064 kbps
Аудио: AС-3, 2 ch, 448 kbps

MediaInfo:

Общее
Полное имя : F:\###_ZAGRUZKI_###\1221222.avi
Формат : AVI
Формат/Информация : Audio Video Interleave
Размер файла : 1,39 Гбайт
Продолжительность : 1 ч. 19 м.
Общий поток : 2 521 Кбит/сек
Название фильма : Призрак монахини из Борли / The Ghosts of Borley Rectory
Режиссёр : Стивен М. Смит
Жанр : ужасы, триллер, драма, детектив
Тема : WEB-DLRip
Дата записи : 2021
Программа кодирования : VirtualDubMod 1.5.10.3 | www.virtualdub-fr.org || (build 2550/release)
Библиотека кодирования : VirtualDubMod build 2550/release
Авторское право : Greenway Entertainment, ChampDog Films, GlobalWatch Films
Примечание : RIP BY -=ANRIF=-
Видео
Идентификатор : 0
Формат : MPEG-4 Visual
Профиль формата : Advanced Simple@L5
Настройки формата : BVOP1
Параметр BVOP формата : 1
Параметр QPel формата : Нет
Параметр GMC формата : Без точки перехода
Параметр матрицы формата : Default (MPEG)
Идентификатор кодека : XVID
Идентификатор кодека/Подсказка : XviD
Продолжительность : 1 ч. 19 м.
Битрейт : 2 064 Кбит/сек
Ширина : 720 пикселей
Высота : 408 пикселей
Соотношение сторон : 16:9
Частота кадров : 23,976 (24000/1001) кадра/сек
Цветовое пространство : YUV
Субдискретизация насыщенности : 4:2:0
Битовая глубина : 8 бит
Тип развёртки : Прогрессивная
Метод сжатия : С потерями
Бит/(Пиксели*Кадры) : 0.293
Размер потока : 1,14 Гбайт (82%)
Библиотека кодирования : XviD 73
Аудио
Идентификатор : 1
Формат : AC-3
Формат/Информация : Audio Coding 3
Коммерческое название : Dolby Digital
Идентификатор кодека : 2000
Продолжительность : 1 ч. 19 м.
Вид битрейта : Постоянный
Битрейт : 448 Кбит/сек
Каналы : 2 канала
Channel layout : L R
Частота : 48,0 КГц
Частота кадров : 31,250 кадров/сек (1536 SPF)
Метод сжатия : С потерями
Размер потока : 253 Мбайт (18%)
Выравнивание : Разделение по промежуткам
Продолжительность промежутка : 42 мс. (1,00 видеокадр)
Время предзагрузки промежутка : 500 мс.
Заголовок : Русский (DUB,Line)
Service kind : Complete Main
Скриншоты: Все одноименные релизы в Клубе Время раздачи: с 18:00 до 24:00 (до первых 3-5 скачавших)
[Профиль] [ЛС]
Показать сообщения:    
Ответить на тему

Текущее время: 20-Апр 20:04

Часовой пояс: UTC ± 0



Вы не можете начинать темы
Вы не можете отвечать на сообщения
Вы не можете редактировать свои сообщения
Вы не можете удалять свои сообщения
Вы не можете голосовать в опросах
Вы не можете прикреплять файлы к сообщениям
Вы не можете скачивать файлы

[  Время выполнения: 0,041 сек  |  MySQL: 0,003 сек (7%) · 3 запр.  |  GZIP выкл  |  Память: 422,29 KB / 1,74 MB / 1,36 MB  |  Лимит: 5 5 5  ]