Бэтмен / The Batman (2022) WEB-DLRip [MVO, AD]

Ответить на тему
 
Автор Сообщение

admin ®

Пол: Не указан

Стаж: 5 месяца 1 день

Сообщений: 10110

Создавать темы 30-Янв-2024 15:17

[Цитировать]

Бэтмен / The Batman (2022) WEB-DLRip - Производство: США, 6th & Idaho Productions, DC Comics, DC Entertainment, Warner Bros.
Жанр: боевик, драма, криминал, детектив
Режиссер: Мэтт Ривз
Продюсер: Мэтт Ривз, Питер Крэйг, Боб Кейн
Актеры: Роберт Паттинсон, Зои Кравиц, Пол Дано, Джеффри Райт, Джон Туртурро, Питер Сарсгаард, Барри Кеоган, Джейми Лосон, Энди Серкис, Колин Фаррелл
Описание:
После двух лет поисков правосудия на улицах Готэма для своих сограждан Бэтмен становится олицетворением беспощадного возмездия. Когда в городе происходит серия жестоких нападений на представителей элиты, улики приводят Брюса Уэйна в самые темные закоулки преступного мира, где он встречает Женщину-Кошку, Пингвина, Кармайна Фальконе и Загадочника. Теперь под прицелом оказывается сам Бэтмен, которому предстоит отличить друга от врага и восстановить справедливость во имя Готэма.
Возраст: 16+ (зрителям, достигшим 16 лет)
Рейтинг MPAA: PG-13 (детям до 13 лет просмотр нежелателен)
Дата мировой премьеры: 1 марта 2022
Продолжительность: 02:55:41
Качество видео: WEB-DLRip
Перевод: Многоголосый закадровый (MUZOBOZ)
Субтитры: Отсутствуют
Реклама: Присутствует баннер
Видео: Xvid, 720x304, 1455 Kbps
Аудио: АС3, 2 ch, 48 kHz, 192 Kbps | Русский

MediaInfo:

Общее
Полное имя : D:\Бэтмен.2022.WEB-DLRip.Soft-Torrent - торрент игры программы фильмы книги скачать.avi
Формат : AVI
Формат/Информация : Audio Video Interleave
Профиль формата : OpenDML
Размер файла : 2,04 Гбайт
Продолжительность : 2 ч. 55 м.
Общий поток : 1659 Кбит/сек
Название фильма : Бэтмен.2022.WEB-DLRip.Soft-Torrent - торрент игры программы фильмы книги скачать
Программа кодирования : VirtualDubMod 1.5.10.2 (build 2542/release)
Видео
Идентификатор : 0
Формат : MPEG-4 Visual
Профиль формата : Advanced Simple@L5
Настройки формата : BVOP2 / Custom Matrix
Параметр BVOP формата : 2
Параметр QPel формата : Нет
Параметр GMC формата : Без точки перехода
Параметр матрицы формата : Выборочная
Идентификатор кодека : XVID
Идентификатор кодека/Подсказка : XviD
Продолжительность : 2 ч. 55 м.
Битрейт : 1455 Кбит/сек
Ширина : 720 пикселей
Высота : 304 пикселя
Соотношение сторон : 2,35:1
Частота кадров : 23,976 (24000/1001) кадра/сек
Цветовое пространство : YUV
Субдискретизация насыщенности : 4:2:0
Битовая глубина : 8 бит
Тип развёртки : Прогрессивная
Метод сжатия : С потерями
Бит/(Пиксели*Кадры) : 0.277
Размер потока : 1,79 Гбайт (88%)
Библиотека кодирования : XviD 1.2.1 (UTC 2008-12-04)
Аудио
Идентификатор : 1
Формат : AC-3
Формат/Информация : Audio Coding 3
Коммерческое название : Dolby Digital
Идентификатор кодека : 2000
Продолжительность : 2 ч. 55 м.
Вид битрейта : Постоянный
Битрейт : 192 Кбит/сек
Каналы : 2 канала
ChannelLayout : L R
Частота : 48,0 КГц
Частота кадров : 31,250 кадров/сек (1536 SPF)
Битовая глубина : 16 бит
Метод сжатия : С потерями
Задержка видео : 71 мс.
Размер потока : 242 Мбайт (12%)
Выравнивание : Разделение по промежуткам
Продолжительность промежутка : 42 мс. (1,00 видеокадр)
Время предзагрузки промежутка : 500 мс.
ServiceKind/String : Complete Main
Скриншоты:
Все одноименные релизы в Клубе Время раздачи: 24/7 (минимум до появления первых 3-5 скачавших)
[Профиль] [ЛС]
Показать сообщения:    
Ответить на тему

Текущее время: 29-Фев 12:47

Часовой пояс: UTC ± 0



Вы не можете начинать темы
Вы не можете отвечать на сообщения
Вы не можете редактировать свои сообщения
Вы не можете удалять свои сообщения
Вы не можете голосовать в опросах
Вы не можете прикреплять файлы к сообщениям
Вы не можете скачивать файлы

[  Время выполнения: 0,033 сек  |  MySQL: 0,003 сек (8%) · 3 запр.  |  GZIP выкл  |  Память: 422,29 KB / 1,74 MB / 1,34 MB  |  Лимит: 18 18 17  ]