Бэтмен / The Batman (2022) WEB-DLRip [H.264] [MVO, AD]

Ответить на тему
 
Автор Сообщение

admin ®

Пол: Не указан

Стаж: 5 месяца

Сообщений: 10110

Создавать темы 30-Янв-2024 15:17

[Цитировать]

Бэтмен / The Batman (2022) WEB-DLRip [H.264]
«Unmask The Truth»
- Производство: США / 6th & Idaho Productions, DC Comics, DC Entertainment, Warner Bros. Pictures
Жанр: боевик, драма, криминал, детектив
Режиссер: Мэтт Ривз
Продюсер: Мэтт Ривз, Питер Крэйг, Боб Кейн
Актеры: Роберт Паттинсон, Зои Кравиц, Пол Дано, Джеффри Райт, Джон Туртурро, Питер Сарсгаард, Барри Кеоган, Джейми Лосон, Энди Серкис, Колин Фаррелл
Описание:
После двух лет поисков правосудия на улицах Готэма для своих сограждан Бэтмен становится олицетворением беспощадного возмездия. Когда в городе происходит серия жестоких нападений на представителей элиты, улики приводят Брюса Уэйна в самые темные закоулки преступного мира, где он встречает Женщину-Кошку, Пингвина, Кармайна Фальконе и Загадочника. Теперь под прицелом оказывается сам Бэтмен, которому предстоит отличить друга от врага и восстановить справедливость во имя Готэма.
Возраст: 16+ (зрителям, достигшим 16 лет)
Рейтинг MPAA: PG-13 (детям до 13 лет просмотр нежелателен)
Дата мировой премьеры: 1 марта 2022
Релиз от: Anrif
Продолжительность: 02:55:41
Качество видео: WEB-DLRip
Перевод: Любительский многоголосый (MuzoBoz)
Язык озвучки: Русский
Субтитры: Отсутствуют
Реклама: Присутствует баннер!
Видео: AVC/H.264, 960х400, 2200 kbps
Аудио: AС-3, 2 ch, 224 kbps

MediaInfo:

Общее
Уникальный идентификатор : 252129994480693624533332426201061370001 (0xBDAE787ADEDBA39E9CB56706DA7FA891)
Полное имя : F:\[Anf].The Batman.(2022).WEB-DLRip.[H.264].mkv
Формат : Matroska
Версия формата : Version 4
Размер файла : 2,98 Гбайт
Продолжительность : 2 ч. 55 м.
Общий поток : 2 426 Кбит/сек
Название фильма : Бэтмен / The Batman (2022)
Дата кодирования : UTC 2022-04-13 07:37:31
Программа кодирования : mkvmerge v8.3.0 ('Over the Horizon') 64bit
Библиотека кодирования : libebml v1.3.1 + libmatroska v1.4.2
Обложка : Yes
Attachments : cover.jpg
Видео
Идентификатор : 1
Формат : AVC
Формат/Информация : Advanced Video Codec
Профиль формата : High@L4.1
Настройки формата : CABAC / 11 Ref Frames
Параметр CABAC формата : Да
Параметр RefFrames формата : 11 кадров
Идентификатор кодека : V_MPEG4/ISO/AVC
Продолжительность : 2 ч. 55 м.
Битрейт : 2 200 Кбит/сек
Ширина : 960 пикселей
Высота : 400 пикселей
Соотношение сторон : 2,40:1
Режим частоты кадров : Постоянный
Частота кадров : 23,976 кадра/сек
Цветовое пространство : YUV
Субдискретизация насыщенности : 4:2:0
Битовая глубина : 8 бит
Тип развёртки : Прогрессивная
Бит/(Пиксели*Кадры) : 0.239
Размер потока : 2,70 Гбайт (91%)
Заголовок : -=Anrif=-
Библиотека кодирования : x264 core 146 r2538 121396c
Настройки программы : cabac=1 / ref=11 / deblock=1:-2:-2 / analyse=0x3:0x113 / me=umh / subme=10 / psy=1 / psy_rd=1.00:0.20 / mixed_ref=1 / me_range=32 / chroma_me=1 / trellis=2 / 8x8dct=1 / cqm=0 / deadzone=21,11 / fast_pskip=0 / chroma_qp_offset=-3 / threads=6 / lookahead_threads=1 / sliced_threads=0 / nr=0 / decimate=0 / interlaced=0 / bluray_compat=0 / constrained_intra=0 / bframes=10 / b_pyramid=2 / b_adapt=2 / b_bias=0 / direct=3 / weightb=1 / open_gop=0 / weightp=2 / keyint=240 / keyint_min=23 / scenecut=40 / intra_refresh=0 / rc_lookahead=40 / rc=2pass / mbtree=0 / bitrate=2200 / ratetol=1.0 / qcomp=0.60 / qpmin=0 / qpmax=69 / qpstep=4 / cplxblur=20.0 / qblur=0.5 / vbv_maxrate=14000 / vbv_bufsize=14000 / nal_hrd=none / filler=0 / ip_ratio=1.40 / pb_ratio=1.30 / aq=1:1.00
Язык : English
Default : Да
Forced : Нет
Аудио
Идентификатор : 2
Формат : AC-3
Формат/Информация : Audio Coding 3
Коммерческое название : Dolby Digital
Идентификатор кодека : A_AC3
Продолжительность : 2 ч. 55 м.
Вид битрейта : Постоянный
Битрейт : 224 Кбит/сек
Каналы : 2 канала
Channel layout : L R
Частота : 48,0 КГц
Частота кадров : 31,250 кадров/сек (1536 SPF)
Метод сжатия : С потерями
Размер потока : 281 Мбайт (9%)
Заголовок : (MVO, MuzoBoz)
Язык : Russian
Service kind : Complete Main
Default : Да
Forced : Нет
Скриншоты: Все одноименные релизы в Клубе Время раздачи: с 18:00 до 24:00 (до первых 3-5 скачавших)
[Профиль] [ЛС]
Показать сообщения:    
Ответить на тему

Текущее время: 28-Фев 23:44

Часовой пояс: UTC ± 0



Вы не можете начинать темы
Вы не можете отвечать на сообщения
Вы не можете редактировать свои сообщения
Вы не можете удалять свои сообщения
Вы не можете голосовать в опросах
Вы не можете прикреплять файлы к сообщениям
Вы не можете скачивать файлы

[  Время выполнения: 0,043 сек  |  MySQL: 0,003 сек (7%) · 3 запр.  |  GZIP выкл  |  Память: 422,29 KB / 1,74 MB / 1,36 MB  |  Лимит: 9 9 9  ]