Бэтмен / The Batman (2022) WEB-DLRip [MVO, AD]

Ответить на тему
 
Автор Сообщение

admin ®

Пол: Не указан

Стаж: 4 месяца 27 дня

Сообщений: 10110

Создавать темы 30-Янв-2024 15:17

[Цитировать]

Бэтмен / The Batman (2022) WEB-DLRip - Производство: США, 6th & Idaho Productions, DC Comics, DC Entertainment, Warner Bros.
Жанр: боевик, драма, криминал, детектив
Режиссер: Мэтт Ривз
Продюсер: Мэтт Ривз, Питер Крэйг, Боб Кейн
Актеры: Роберт Паттинсон, Зои Кравиц, Пол Дано, Джеффри Райт, Джон Туртурро, Питер Сарсгаард, Барри Кеоган, Джейми Лосон, Энди Серкис, Колин Фаррелл
Описание:
После двух лет поисков правосудия на улицах Готэма для своих сограждан Бэтмен становится олицетворением беспощадного возмездия. Когда в городе происходит серия жестоких нападений на представителей элиты, улики приводят Брюса Уэйна в самые темные закоулки преступного мира, где он встречает Женщину-Кошку, Пингвина, Кармайна Фальконе и Загадочника. Теперь под прицелом оказывается сам Бэтмен, которому предстоит отличить друга от врага и восстановить справедливость во имя Готэма.
[kp]https://www.kinopoisk.ru/film/590286/[/kp]
Возраст: 16+ (зрителям, достигшим 16 лет)
Рейтинг MPAA: PG-13 (детям до 13 лет просмотр нежелателен)
Дата мировой премьеры: 1 марта 2022
Продолжительность: 02:56:37
Качество видео: WEB-DLRip
Перевод: Многоголосый любительский (MUZOBOZ)
Субтитры: Отсутствуют
Реклама: Присутствует аудио, видео реклама + баннер
Видео: Xvid, 720x304, ~1000 Kbps
Аудио: AC3, 2 ch, 128 Kbps

MediaInfo:

Общее
Полное имя : D:\НОВИНКИ КИНО\The.Batman.2022.P.WEB-DLRip.14OOMB.avi
Формат : AVI
Формат/Информация : Audio Video Interleave
Размер файла : 1,37 Гбайт
Продолжительность : 2 ч. 56 м.
Общий поток : 1 111 Кбит/сек
Программа кодирования : VirtualDubMod 1.5.10.2 (build 2540/release)
Библиотека кодирования : VirtualDubMod build 2540/release
Видео
Идентификатор : 0
Формат : MPEG-4 Visual
Профиль формата : Advanced Simple@L5
Настройки формата : BVOP2 / Custom Matrix
Параметр BVOP формата : 2
Параметр QPel формата : Нет
Параметр GMC формата : Без точки перехода
Параметр матрицы формата : Выборочная
Идентификатор кодека : XVID
Идентификатор кодека/Подсказка : XviD
Продолжительность : 2 ч. 56 м.
Битрейт : 974 Кбит/сек
Ширина : 720 пикселей
Высота : 304 пикселя
Соотношение сторон : 2,35:1
Частота кадров : 23,976 (24000/1001) кадра/сек
Цветовое пространство : YUV
Субдискретизация насыщенности : 4:2:0
Битовая глубина : 8 бит
Тип развёртки : Прогрессивная
Метод сжатия : С потерями
Бит/(Пиксели*Кадры) : 0.186
Размер потока : 1,20 Гбайт (88%)
Библиотека кодирования : XviD 1.2.1 (UTC 2008-12-04)
Аудио
Идентификатор : 1
Формат : AC-3
Формат/Информация : Audio Coding 3
Коммерческое название : Dolby Digital
Идентификатор кодека : 2000
Продолжительность : 2 ч. 56 м.
Вид битрейта : Постоянный
Битрейт : 128 Кбит/сек
Каналы : 2 канала
Channel layout : L R
Частота : 48,0 КГц
Частота кадров : 31,250 кадров/сек (1536 SPF)
Метод сжатия : С потерями
Размер потока : 162 Мбайт (12%)
Выравнивание : Разделение по промежуткам
Продолжительность промежутка : 42 мс. (1,00 видеокадр)
Время предзагрузки промежутка : 500 мс.
Service kind : Complete Main
Скриншоты:
Все одноименные релизы в КлубеВремя раздачи: 12:00 до 16:00 (минимум до появления первых 3-5 скачавших)
[Профиль] [ЛС]
Показать сообщения:    
Ответить на тему

Текущее время: 25-Фев 20:39

Часовой пояс: UTC ± 0



Вы не можете начинать темы
Вы не можете отвечать на сообщения
Вы не можете редактировать свои сообщения
Вы не можете удалять свои сообщения
Вы не можете голосовать в опросах
Вы не можете прикреплять файлы к сообщениям
Вы не можете скачивать файлы

[  Время выполнения: 0,037 сек  |  MySQL: 0,010 сек (27%) · 3 запр.  |  GZIP выкл  |  Память: 422,29 KB / 1,72 MB / 1,32 MB  |  Лимит: 10 11 11  ]