Бэтмен / The Batman (2022) WEB-DLRip [H.264/1080p-LQ] [Line, AD]

Ответить на тему
 
Автор Сообщение

admin ®

Пол: Не указан

Стаж: 5 месяца

Сообщений: 10110

Создавать темы 30-Янв-2024 15:17

[Цитировать]

Бэтмен / The Batman (2022) WEB-DLRip [H.264/1080p-LQ] - Производство: США, 6th & Idaho Productions, DC Comics, DC Entertainment, Warner Bros.
Жанр: боевик, драма, криминал, детектив
Режиссер: Мэтт Ривз
Продюсер: Мэтт Ривз, Питер Крэйг, Боб Кейн
Актеры: Роберт Паттинсон, Зои Кравиц, Пол Дано, Джеффри Райт, Джон Туртурро, Питер Сарсгаард, Барри Кеоган, Джейми Лосон, Энди Серкис, Колин Фаррелл
Описание:
После двух лет поисков правосудия на улицах Готэма для своих сограждан Бэтмен становится олицетворением беспощадного возмездия. Когда в городе происходит серия жестоких нападений на представителей элиты, улики приводят Брюса Уэйна в самые темные закоулки преступного мира, где он встречает Женщину-Кошку, Пингвина, Кармайна Фальконе и Загадочника. Теперь под прицелом оказывается сам Бэтмен, которому предстоит отличить друга от врага и восстановить справедливость во имя Готэма.
Возраст: 16+ (зрителям, достигшим 16 лет)
Рейтинг MPAA: PG-13 (детям до 13 лет просмотр нежелателен)
Дата мировой премьеры: 1 марта 2022
Продолжительность: 02:55:43
Качество видео: WEB-DLRip
Перевод: Дублированный (Line)
Субтитры: Отсутствуют
Реклама: Присутствует баннер
Видео: AVC/H.264, 1920x804, 10.5 Mbps, 23.976 fps
Аудио: АС3, 2 ch, 48 kHz, 384 Kbps | Русский

MediaInfo:

Общее
Полное имя : D:\Бэтмен.2022.WEB-DLRip.[1080p].Soft-Torrent - торрент игры программы фильмы книги скачать.mkv
Формат : Matroska
Версия формата : Version 2
Размер файла : 13,7 Гбайт
Продолжительность : 2 ч. 55 м.
Режим общего битрейта : Постоянный
Общий поток : 11,2 Мбит/сек
Программа кодирования : libmatroska 1.4.1
Библиотека кодирования : SolveigMM Matroska Muxer Version 1.0.2010.29
Видео
Идентификатор : 1
Формат : AVC
Формат/Информация : Advanced Video Codec
Профиль формата : High@L4.1
Настройки формата : CABAC / 4 Ref Frames
Параметр CABAC формата : Да
Параметр RefFrames формата : 4 кадра
Идентификатор кодека : V_MPEG4/ISO/AVC
Продолжительность : 2 ч. 55 м.
Вид битрейта : Постоянный
Битрейт : 10,5 Мбит/сек
Номинальный битрейт : 12,0 Мбит/сек / 12,0 Мбит/сек
Ширина : 1920 пикселей
Высота : 804 пикселя
Соотношение сторон : 2,40:1
Режим частоты кадров : Постоянный
Частота кадров : 23,976 (24000/1001) кадра/сек
Стандарт вещания : Component
Цветовое пространство : YUV
Субдискретизация насыщенности : 4:2:0
Битовая глубина : 8 бит
Тип развёртки : Прогрессивная
Бит/(Пиксели*Кадры) : 0.285
Размер потока : 12,9 Гбайт (95%)
Язык : English
Default : Да
Forced : Нет
Цветовой диапазон : Limited
Основные цвета : BT.709
Характеристики трансфера : BT.709
Коэффициенты матрицы : BT.709
Аудио
Идентификатор : 2
Формат : AC-3
Формат/Информация : Audio Coding 3
Коммерческое название : Dolby Digital
Идентификатор кодека : A_AC3
Продолжительность : 2 ч. 55 м.
Вид битрейта : Постоянный
Битрейт : 384 Кбит/сек
Каналы : 2 канала
ChannelLayout : L R
Частота : 48,0 КГц
Частота кадров : 31,250 кадров/сек (1536 SPF)
Битовая глубина : 16 бит
Метод сжатия : С потерями
Размер потока : 483 Мбайт (3%)
Язык : Russian
ServiceKind/String : Complete Main
Default : Да
Forced : Нет
Скриншоты:
Все одноименные релизы в Клубе Время раздачи: 24/7 (минимум до появления первых 3-5 скачавших)
[Профиль] [ЛС]
Показать сообщения:    
Ответить на тему

Текущее время: 28-Фев 21:51

Часовой пояс: UTC ± 0



Вы не можете начинать темы
Вы не можете отвечать на сообщения
Вы не можете редактировать свои сообщения
Вы не можете удалять свои сообщения
Вы не можете голосовать в опросах
Вы не можете прикреплять файлы к сообщениям
Вы не можете скачивать файлы

[  Время выполнения: 0,033 сек  |  MySQL: 0,003 сек (8%) · 3 запр.  |  GZIP выкл  |  Память: 422,29 KB / 1,74 MB / 1,34 MB  |  Лимит: 22 18 16  ]