Скорая / Ambulance (2022) WEB-DLRip [AD]

Ответить на тему
 
Автор Сообщение

admin ®

Пол: Не указан

Стаж: 5 месяца 1 день

Сообщений: 10110

Создавать темы 30-Янв-2024 15:17

[Цитировать]

Скорая / Ambulance (2022) WEB-DLRip
«It was supposed to be a simple heist»
- Производство: США / Universal Pictures, Endeavor Content, New Republic Pictures, Bay Films, Dentsu, Project X Entertainment
Жанр: боевик, триллер, драма, криминал
Режиссер: Майкл Бэй
Продюсер: Йен Брайс, Уильям Шерак, Джеймс Вандербилт
Актеры: Джейк Джилленхол, Яхья Абдул-Матин II, Эйса Гонсалес, Гаррет Диллахант, Кейр О’Доннелл, Джексон Уайт, Оливия Стамбулиа, Моусес Ингрэм, Колин Вуделл, Седрик Сандерс
Описание:
Ветеран Уилл Шарп отчаянно нуждается в деньгах, чтобы спасти смертельно больную жену. Он обращается за помощью к брату-преступнику Дэнни, и тот уговаривает его ограбить банк. Однако всё идет не по плану, и братьям приходится угнать машину скорой помощи вместе с двумя заложниками — врачом и раненым полицейским.
Рейтинг MPAA: R (лицам до 17 лет обязательно присутствие взрослого)
Дата мировой премьеры: 16 марта 2022
Релиз от: Anrif
Продолжительность: 02:16:14
Качество видео: WEB-DLRip
Перевод: Любительский многоголосый (MuzoBoz)
Язык озвучки: Русский
Субтитры: Отсутствуют
Реклама: Присутствует баннер!
Видео: XviD, 720х296, 2000 kbps
Аудио: AС-3, 2 ch, 192 kbps

MediaInfo:

Общее
Полное имя : F:\[Anf].Ambulance.(2022).WEB-DLRip.avi
Формат : AVI
Формат/Информация : Audio Video Interleave
Профиль формата : OpenDML
Размер файла : 2,10 Гбайт
Продолжительность : 2 ч. 16 м.
Общий поток : 2 207 Кбит/сек
Название фильма : Скорая / Ambulance
Режиссёр : Майкл Бэй
Жанр : боевик, триллер, драма, криминал
Тема : WEB-DLRip
Дата записи : 2022
Программа кодирования : VirtualDubMod 1.5.10.3 | www.virtualdub-fr.org || (build 2550/release)
Библиотека кодирования : VirtualDubMod build 2550/release
Формат оригинала/Имя : США
Авторское право : Bay Films, Dentsu, Universal Pictures, Endeavor Content, New Republic Pictures, Project X Entertainment
Примечание : RIP BY -=ANRIF=-
Видео
Идентификатор : 0
Формат : MPEG-4 Visual
Профиль формата : Advanced Simple@L5
Настройки формата : BVOP1
Параметр BVOP формата : 1
Параметр QPel формата : Нет
Параметр GMC формата : Без точки перехода
Параметр матрицы формата : Default (MPEG)
Идентификатор кодека : XVID
Идентификатор кодека/Подсказка : XviD
Продолжительность : 2 ч. 16 м.
Битрейт : 2 000 Кбит/сек
Ширина : 720 пикселей
Высота : 296 пикселей
Соотношение сторон : 2,40:1
Частота кадров : 29,970 (30000/1001) кадров/сек
Цветовое пространство : YUV
Субдискретизация насыщенности : 4:2:0
Битовая глубина : 8 бит
Тип развёртки : Прогрессивная
Метод сжатия : С потерями
Бит/(Пиксели*Кадры) : 0.313
Размер потока : 1,90 Гбайт (91%)
Библиотека кодирования : XviD 73
Аудио
Идентификатор : 1
Формат : AC-3
Формат/Информация : Audio Coding 3
Коммерческое название : Dolby Digital
Идентификатор кодека : 2000
Продолжительность : 2 ч. 16 м.
Вид битрейта : Постоянный
Битрейт : 192 Кбит/сек
Каналы : 2 канала
Channel layout : L R
Частота : 48,0 КГц
Частота кадров : 31,250 кадров/сек (1536 SPF)
Метод сжатия : С потерями
Размер потока : 187 Мбайт (9%)
Выравнивание : Разделение по промежуткам
Продолжительность промежутка : 33 мс. (1,00 видеокадр)
Время предзагрузки промежутка : 500 мс.
Service kind : Complete Main
Скриншоты: Все одноименные релизы в Клубе Время раздачи: с 18:00 до 24:00 (до первых 3-5 скачавших)
[Профиль] [ЛС]
Показать сообщения:    
Ответить на тему

Текущее время: 29-Фев 11:35

Часовой пояс: UTC ± 0



Вы не можете начинать темы
Вы не можете отвечать на сообщения
Вы не можете редактировать свои сообщения
Вы не можете удалять свои сообщения
Вы не можете голосовать в опросах
Вы не можете прикреплять файлы к сообщениям
Вы не можете скачивать файлы

[  Время выполнения: 0,049 сек  |  MySQL: 0,004 сек (7%) · 5 запр.  |  GZIP выкл  |  Память: 422,29 KB / 1,74 MB / 1,34 MB  |  Лимит: 10 10 10  ]