Осада в Сильвертоне / Silverton Siege (2022) WEB-DLRip [H.264/1080p-LQ] [MVO, AD]

Ответить на тему
 
Автор Сообщение

admin ®

Пол: Не указан

Стаж: 6 месяца 22 дня

Сообщений: 11520

Создавать темы 30-Янв-2024 15:16

[Цитировать]

Осада в Сильвертоне / Silverton Siege (2022) WEB-DLRip [H.264/1080p-LQ]
«Freedom is a Fight»
- Производство: ЮАР / Pambili Media
Жанр: боевик, триллер, драма, криминал, история
Режиссер: Sabelo Mgidi
Продюсер: Уолтер Эйрс, Мандла Дюбэ, Майкл Л. Геймс
Актеры: Арнольд Вослу, Sarah Kozlowski, Шэйн Веллингтон, Табо Раметси, Тумишо Маша, Ноксоло Дламини, Клэйтон Бойд, Stefan Erasmus, Джастин Стридом, Жак Гомбо
Описание:
После неудачной диверсии трое борцов с апартеидом попадают в сложную ситуацию с заложниками в банке.
Дата мировой премьеры: 27 апреля 2022
Релиз от: Anrif
Продолжительность: 01:40:08
Качество видео: WEB-DLRip (1080p)
Перевод: Любительский многоголосый (MuzoBoz)
Язык озвучки: Русский
Субтитры: Отсутствуют
Реклама: Присутствует баннер!
Видео: AVC/H.264, 1920х800, ~7000 kbps
Аудио: AС3, 2 ch, 192 kbps

MediaInfo:

Общее
Уникальный идентификатор : 238180746148659732201648125277217843922 (0xB32FF17035718B649DFDCACA88896AD2)
Полное имя : F:\[Anf].Silverton.Siege.(2022).WEB-DLRip.[1080p-LQ].mkv
Формат : Matroska
Версия формата : Version 4
Размер файла : 4,82 Гбайт
Продолжительность : 1 ч. 40 м.
Режим общего битрейта : Постоянный
Общий поток : 6 888 Кбит/сек
Название фильма : Silverton Siege / Осада в Сильвертоне_(2022)
Дата кодирования : UTC 2022-04-28 17:46:26
Программа кодирования : mkvmerge v8.3.0 ('Over the Horizon') 64bit
Библиотека кодирования : libebml v1.3.1 + libmatroska v1.4.2
Обложка : Yes
Attachments : cover.jpg
Видео
Идентификатор : 1
Формат : AVC
Формат/Информация : Advanced Video Codec
Профиль формата : High@L4.1
Настройки формата : CABAC / 4 Ref Frames
Параметр CABAC формата : Да
Параметр RefFrames формата : 4 кадра
Идентификатор кодека : V_MPEG4/ISO/AVC
Продолжительность : 1 ч. 40 м.
Вид битрейта : Постоянный
Битрейт : 7 000 Кбит/сек
Ширина : 1 920 пикселей
Высота : 800 пикселей
Соотношение сторон : 2,40:1
Режим частоты кадров : Постоянный
Частота кадров : 23,976 (24000/1001) кадра/сек
Стандарт вещания : Component
Цветовое пространство : YUV
Субдискретизация насыщенности : 4:2:0
Битовая глубина : 8 бит
Тип развёртки : Прогрессивная
Бит/(Пиксели*Кадры) : 0.190
Размер потока : 4,68 Гбайт (97%)
Заголовок : -=Anrif=-
Язык : English
Default : Да
Forced : Нет
Цветовой диапазон : Limited
Основные цвета : BT.709
Характеристики трансфера : BT.709
Коэффициенты матрицы : BT.709
Аудио
Идентификатор : 2
Формат : AC-3
Формат/Информация : Audio Coding 3
Коммерческое название : Dolby Digital
Идентификатор кодека : A_AC3
Продолжительность : 1 ч. 40 м.
Вид битрейта : Постоянный
Битрейт : 192 Кбит/сек
Каналы : 2 канала
Channel layout : L R
Частота : 48,0 КГц
Частота кадров : 31,250 кадров/сек (1536 SPF)
Метод сжатия : С потерями
Размер потока : 138 Мбайт (3%)
Заголовок : (MVO, MuzoBoz)
Язык : Russian
Service kind : Complete Main
Default : Да
Forced : Нет
Скриншоты: Все одноименные релизы в Клубе Время раздачи: с 18:00 до 24:00 (до первых 3-5 скачавших)
[Профиль] [ЛС]
Показать сообщения:    
Ответить на тему

Текущее время: 20-Апр 20:01

Часовой пояс: UTC ± 0



Вы не можете начинать темы
Вы не можете отвечать на сообщения
Вы не можете редактировать свои сообщения
Вы не можете удалять свои сообщения
Вы не можете голосовать в опросах
Вы не можете прикреплять файлы к сообщениям
Вы не можете скачивать файлы

[  Время выполнения: 0,034 сек  |  MySQL: 0,003 сек (8%) · 3 запр.  |  GZIP выкл  |  Память: 422,29 KB / 1,74 MB / 1,34 MB  |  Лимит: 6 5 5  ]