Забег Тайсона / Tyson's Run (2022) DVDRip [MVO, AD]

Ответить на тему
 
Автор Сообщение

admin ®

Пол: Не указан

Стаж: 5 месяца

Сообщений: 10110

Создавать темы 30-Янв-2024 15:16

[Цитировать]

Забег Тайсона / Tyson's Run (2022) DVDRip - Производство: США /Planet 9 Productions, Beautiful Lie Pictures, Pace Pictures
Жанр: драма
Режиссер: Ким Басс
Продюсер: Ким Басс, Брюс Лэйн, Дианна Шапиро
Актеры: Мейджор Додсон, Эми Смарт, Рори Кокрейн, Баркхад Абди, Лайла Фелдер, Джоди Томпсон, Исайя Ашер Хэнли, Форрест Дил, Клаудия Зеваллос, Рено Уилсон и др.
Описание:
Хилый парень, страдающий аутизмом, стремится стать легендарным чемпионом городского марафона, дав своему отчаявшемуся отцу цель и второй шанс поставить семью на первое место.
Рейтинг MPAA: PG (рекомендуется присутствие родителей)
Дата мировой премьеры: 11 марта 2022
Дата российской премьеры: -
Продолжительность: 01:43:44
Качество видео: DVDRip
Перевод: Многоголосый профессиональный ("Синема УС")
Субтитры: отсутствуют
Реклама: Присутствует реклама
Видео: Xvid, 720x400, ~1621 Kbps
Аудио: AC3, 2 ch, 256 Kbps

MediaInfo:

Общее
Полное имя : C:\Загрузки\Tysons.Run.2022.P.DVDRip.avi
Формат : AVI
Формат/Информация : Audio Video Interleave
Размер файла : 1,37 Гбайт
Продолжительность : 1 ч. 43 м.
Общий поток : 1 886 Кбит/сек
Программа кодирования : VirtualDubMod 1.5.10.3 | www.virtualdub-fr.org || (build 2550/release)
Библиотека кодирования : VirtualDubMod build 2550/release
Видео
Идентификатор : 0
Формат : MPEG-4 Visual
Профиль формата : Advanced Simple@L5
Настройки формата : BVOP2 / Custom Matrix
Параметр BVOP формата : 2
Параметр QPel формата : Нет
Параметр GMC формата : Без точки перехода
Параметр матрицы формата : Выборочная
Идентификатор кодека : XVID
Идентификатор кодека/Подсказка : XviD
Продолжительность : 1 ч. 43 м.
Битрейт : 1 621 Кбит/сек
Ширина : 720 пикселей
Высота : 400 пикселей
Соотношение сторон : 16:9
Частота кадров : 23,976 (24000/1001) кадра/сек
Цветовое пространство : YUV
Субдискретизация насыщенности : 4:2:0
Битовая глубина : 8 бит
Тип развёртки : Прогрессивная
Метод сжатия : С потерями
Бит/(Пиксели*Кадры) : 0.235
Размер потока : 1,17 Гбайт (86%)
Библиотека кодирования : XviD 1.2.1 (UTC 2008-12-04)
Аудио
Идентификатор : 1
Формат : AC-3
Формат/Информация : Audio Coding 3
Коммерческое название : Dolby Digital
Идентификатор кодека : 2000
Продолжительность : 1 ч. 43 м.
Вид битрейта : Постоянный
Битрейт : 256 Кбит/сек
Каналы : 2 канала
Channel layout : L R
Частота : 48,0 КГц
Частота кадров : 31,250 кадров/сек (1536 SPF)
Метод сжатия : С потерями
Размер потока : 190 Мбайт (14%)
Выравнивание : Разделение по промежуткам
Продолжительность промежутка : 42 мс. (1,00 видеокадр)
Время предзагрузки промежутка : 500 мс.
Service kind : Complete Main
Скриншоты:
Все одноименные релизы в КлубеВремя раздачи: 24/7 (минимум до появления первых 3-5 скачавших)
[Профиль] [ЛС]
Показать сообщения:    
Ответить на тему

Текущее время: 28-Фев 23:10

Часовой пояс: UTC ± 0



Вы не можете начинать темы
Вы не можете отвечать на сообщения
Вы не можете редактировать свои сообщения
Вы не можете удалять свои сообщения
Вы не можете голосовать в опросах
Вы не можете прикреплять файлы к сообщениям
Вы не можете скачивать файлы

[  Время выполнения: 0,039 сек  |  MySQL: 0,004 сек (10%) · 5 запр.  |  GZIP выкл  |  Память: 422,29 KB / 1,73 MB / 1,34 MB  |  Лимит: 9 9 10  ]