Корректирующие меры / Corrective Measures (2022) WEB-DLRip [H.264/1080p-LQ] [MVO, AD]

Ответить на тему
 
Автор Сообщение

admin ®

Пол: Не указан

Стаж: 5 месяца 1 день

Сообщений: 10110

Создавать темы 30-Янв-2024 15:16

[Цитировать]

Корректирующие меры / Corrective Measures (2022) WEB-DLRip [H.264/1080p-LQ] - Производство: США / Arcana Studio, The Exchange, Tubi TV
Жанр: фантастика, боевик, триллер
Режиссер: Шон Патрик О’Рейли
Продюсер: Мишель О’Рейли, Шон Патрик О’Рейли, Яс Бопарай
Актеры: Брюс Уиллис, Майкл Рукер, Томас Кавана, Бреннан Мейя, Кевин Зегерс, Дэн Пэйн, Celia Aloma, Хейли Сэйлс, Катрина Мёльман, Мэтт Андерсон
Описание:
В самой опасной в мире тюрьме строгого режима, где содержатся самые коварные преступники, нарастает напряженность между заключенными и персоналом, что приводит к анархии, которая охватывает тюрьму, и порядок переворачивается с ног на голову.
Дата мировой премьеры: 29 апреля 2022
Релиз от: Anrif
Продолжительность: 01:46:01
Качество видео: WEB-DLRip (1080p)
Перевод: Любительский многоголосый (AlphaProject)
Язык озвучки: Русский
Субтитры: Отсутствуют
Реклама: Присутствует баннер!
Видео: AVC/H.264, 1920х800, 7000 kbps
Аудио: AС-3, 2 ch, 192 kbps

MediaInfo:

Общее
Уникальный идентификатор : 207687222051924728000234244395980820062 (0x9C3F1A9FD9FBC617902AD37768100E5E)
Полное имя : F:\[Anf].Corrective.Measures.(2022).WEB-DLRip.[1080p-LQ].mkv
Формат : Matroska
Версия формата : Version 4
Размер файла : 5,20 Гбайт
Продолжительность : 1 ч. 46 м.
Режим общего битрейта : Постоянный
Общий поток : 7 022 Кбит/сек
Название фильма : Corrective Measures / Корректирующие меры_(2022)
Дата кодирования : UTC 2022-04-30 23:46:24
Программа кодирования : mkvmerge v8.3.0 ('Over the Horizon') 64bit
Библиотека кодирования : libebml v1.3.1 + libmatroska v1.4.2
Обложка : Yes
Attachments : cover.jpeg
Видео
Идентификатор : 1
Формат : AVC
Формат/Информация : Advanced Video Codec
Профиль формата : High@L4.1
Настройки формата : CABAC / 4 Ref Frames
Параметр CABAC формата : Да
Параметр RefFrames формата : 4 кадра
Идентификатор кодека : V_MPEG4/ISO/AVC
Продолжительность : 1 ч. 46 м.
Вид битрейта : Постоянный
Битрейт : 7 000 Кбит/сек
Ширина : 1 920 пикселей
Высота : 800 пикселей
Соотношение сторон : 2,40:1
Режим частоты кадров : Постоянный
Частота кадров : 23,976 (24000/1001) кадра/сек
Стандарт вещания : Component
Цветовое пространство : YUV
Субдискретизация насыщенности : 4:2:0
Битовая глубина : 8 бит
Тип развёртки : Прогрессивная
Бит/(Пиксели*Кадры) : 0.190
Размер потока : 5,06 Гбайт (97%)
Заголовок : -=Anrif=-
Язык : English
Default : Да
Forced : Нет
Цветовой диапазон : Limited
Основные цвета : BT.709
Характеристики трансфера : BT.709
Коэффициенты матрицы : BT.709
Аудио
Идентификатор : 2
Формат : AC-3
Формат/Информация : Audio Coding 3
Коммерческое название : Dolby Digital
Идентификатор кодека : A_AC3
Продолжительность : 1 ч. 46 м.
Вид битрейта : Постоянный
Битрейт : 192 Кбит/сек
Каналы : 2 канала
Channel layout : L R
Частота : 48,0 КГц
Частота кадров : 31,250 кадров/сек (1536 SPF)
Метод сжатия : С потерями
Размер потока : 146 Мбайт (3%)
Заголовок : (MVO, AlphaProject)
Язык : Russian
Service kind : Complete Main
Default : Да
Forced : Нет
Скриншоты: Все одноименные релизы в Клубе Время раздачи: с 18:00 до 24:00 (до первых 3-5 скачавших)
[Профиль] [ЛС]
Показать сообщения:    
Ответить на тему

Текущее время: 29-Фев 12:43

Часовой пояс: UTC ± 0



Вы не можете начинать темы
Вы не можете отвечать на сообщения
Вы не можете редактировать свои сообщения
Вы не можете удалять свои сообщения
Вы не можете голосовать в опросах
Вы не можете прикреплять файлы к сообщениям
Вы не можете скачивать файлы

[  Время выполнения: 0,035 сек  |  MySQL: 0,003 сек (7%) · 3 запр.  |  GZIP выкл  |  Память: 422,29 KB / 1,72 MB / 1,32 MB  |  Лимит: 18 17 16  ]