Клаустрофобы. Начало / The Bunker Game (2021) WEB-DLRip [H.264]

Ответить на тему
 
Автор Сообщение

admin ®

Пол: Не указан

Стаж: 7 месяца 24 дня

Сообщений: 11520

Создавать темы 30-Янв-2024 15:16

[Цитировать]

Клаустрофобы. Начало / The Bunker Game (2021) WEB-DLRip [H.264] - Производство: Италия, Франция, Eagle Pictures, KadorPlace du Marché
Жанр: ужасы
Режиссер: Роберто Дзаццара
Актеры: Гайя Вайсс, Лоренцо Рикельми, Марк Райдер, Тудор Истодор, Макита Самба, Амина Бен-Смэйл, Серена де Феррари, Фелисе Янкельль, Марко Ласкари, Николо Пазетти
Описание:
В заброшенном бункере, где в римские времена был храм подземного божества Сорануса, а во время войны нацисты устроили себе убежище, группа молодых людей организует костюмированную вечеринку-игру. По ее сюжету, Четвертый рейх занимается генными экспериментами и проводит первые игры на выживание. Участники сталкиваются с подлинным и древним злом.
Возраст: 16+ (зрителям, достигшим 16 лет)
Релиз от: lexx256 ®
Продолжительность: 01:35:25
Качество видео: WEB-DLRip
Перевод: Дублированный
Субтитры: отсутствуют
Реклама: присутствуют Визуальная реклама
Видео: AVC/H.264, 1024x426, ~2550 Kbps
Аудио: AC3, 2 ch, 192 Kbps | Русский (DUB, Line)

MediaInfo:

General
Unique ID : 222707791551513197831889545240584170041 (0xA78BF5E0B088B04B1D063DB05464AA39)
Complete name : C:\Users\Клаустрофобы. Начало-2021 (WEB-DLRip).mkv
Format : Matroska
Format version : Version 4
File size : 1.80 GiB
Duration : 1 h 35 min
Overall bit rate mode : Constant
Overall bit rate : 2 698 kb/s
Encoded date : UTC 2022-03-19 13:31:30
Writing application : mkvmerge v66.0.0 ('Josie') 64-bit
Writing library : libebml v1.4.2 + libmatroska v1.6.4
Attachments : poster.jpg
Video
ID : 1
Format : AVC
Format/Info : Advanced Video Codec
Format profile : High@L4.1
Format settings : CABAC / 14 Ref Frames
Format settings, CABAC : Yes
Format settings, Reference : 14 frames
Codec ID : V_MPEG4/ISO/AVC
Duration : 1 h 35 min
Bit rate mode : Constant
Bit rate : 2 550 kb/s
Width : 1 024 pixels
Height : 426 pixels
Display aspect ratio : 2.40:1
Frame rate mode : Constant
Frame rate : 23.976 (24000/1001) FPS
Color space : YUV
Chroma subsampling : 4:2:0
Bit depth : 8 bits
Scan type : Progressive
Bits/(Pixel*Frame) : 0.244
Stream size : 1.67 GiB (93%)
Default : Yes
Forced : No
Color range : Limited
Color primaries : BT.709
Transfer characteristics : BT.709
Matrix coefficients : BT.709
Audio
ID : 2
Format : AC-3
Format/Info : Audio Coding 3
Commercial name : Dolby Digital
Codec ID : A_AC3
Duration : 1 h 35 min
Bit rate mode : Constant
Bit rate : 192 kb/s
Channel(s) : 2 channels
Channel layout : L R
Sampling rate : 48.0 kHz
Frame rate : 31.250 FPS (1536 SPF)
Bit depth : 32 bits
Compression mode : Lossy
Stream size : 131 MiB (7%)
Title : Дублированный
Service kind : Complete Main
Default : Yes
Forced : No
Скриншоты:
Все одноименные релизы в КлубеВремя раздачи: До первых скачавших (минимум до появления первых 3-5 скачавших)
[Профиль] [ЛС]
Показать сообщения:    
Ответить на тему

Текущее время: 23-Май 07:13

Часовой пояс: UTC ± 0



Вы не можете начинать темы
Вы не можете отвечать на сообщения
Вы не можете редактировать свои сообщения
Вы не можете удалять свои сообщения
Вы не можете голосовать в опросах
Вы не можете прикреплять файлы к сообщениям
Вы не можете скачивать файлы

[  Время выполнения: 0,039 сек  |  MySQL: 0,003 сек (8%) · 3 запр.  |  GZIP выкл  |  Память: 422,49 KB / 1,73 MB / 1,33 MB  |  Лимит: 16 12 10  ]