На пределе. История легенды / Klammer (2021) WEBRip [Line, AD]

Ответить на тему
 
Автор Сообщение

admin ®

Пол: Не указан

Стаж: 4 месяца 27 дня

Сообщений: 10110

Создавать темы 30-Янв-2024 15:15

[Цитировать]

На пределе. История легенды / Klammer (2021) WEBRip- Производство: Австрия / Epo-Film Produktionsgesellschaft, Sabotage Films Vienna, Samsara Filmproduktion
Жанр: драма, биография, спорт
Режиссер: Андреас Шмид
Актеры: Julian Waldner, Валери Хубер, Wolfgang Oliver, Гарри Лампль, Noah Perktold, Benedikt Kalcher, Doris Dexl, Отто Янкович, Raphael Nicholas, Robert Reinagl
Описание:
Февраль 1976 года, Австрия. В Инсбруке проходит Зимняя Олимпиада, и австрийский горнолыжник Франц Кламмер готовится к соревнованиям на трассе в Пачеркофель. Кламмер — восходящая звезда лыжного спорта. В прошлом сезоне он выиграл множество гонок, и теперь пресса и публика ждут от него новых побед, поэтому Франц испытывает необычайное давление — надежды многих австрийцев лежат на его плечах. Его команда и спонсор заставляют лыжника ради рекламы поменять привычную экипировку незадолго до олимпийской гонки, а погодные условия ухудшаются день ото дня. Кламмер рискует сломаться под грузом ответственности, но не сдаётся благодаря помощи и поддержке своей девушки Евы.
Дата мировой премьеры: 26 октября 2021
Продолжительность: 01:51:49
Качество видео: WEBRip
Перевод: Дублированный (Line)
Субтитры: Отсутствуют
Реклама: Присутствует баннер.
Видео: XviD, 720x304, ~1603 Kbps
Аудио: AC-3, 2 ch, 256 Kbps

MediaInfo:

Общее
Полное имя : D:\NNM\История легенды\Klammer.2021.WEBRip.avi
Формат : AVI
Формат/Информация : Audio Video Interleave
Размер файла : 1,46 Гбайт
Продолжительность : 1 ч. 51 м.
Общий поток : 1 868 Кбит/сек
Программа кодирования : VirtualDubMod 1.5.10.3 | www.virtualdub-fr.org || (build 2550/release)
Библиотека кодирования : VirtualDubMod build 2550/release
Видео
Идентификатор : 0
Формат : MPEG-4 Visual
Профиль формата : Advanced Simple@L5
Настройки формата : BVOP1 / Custom Matrix
Параметр BVOP формата : 1
Параметр QPel формата : Нет
Параметр GMC формата : Без точки перехода
Параметр матрицы формата : Выборочная
Идентификатор кодека : XVID
Идентификатор кодека/Подсказка : XviD
Продолжительность : 1 ч. 51 м.
Битрейт : 1 603 Кбит/сек
Ширина : 720 пикселей
Высота : 304 пикселя
Соотношение сторон : 2,35:1
Частота кадров : 23,976 (24000/1001) кадра/сек
Цветовое пространство : YUV
Субдискретизация насыщенности : 4:2:0
Битовая глубина : 8 бит
Тип развёртки : Прогрессивная
Метод сжатия : С потерями
Бит/(Пиксели*Кадры) : 0.305
Размер потока : 1,25 Гбайт (86%)
Библиотека кодирования : XviD 1.2.1 (UTC 2008-12-04)
Аудио
Идентификатор : 1
Формат : AC-3
Формат/Информация : Audio Coding 3
Коммерческое название : Dolby Digital
Идентификатор кодека : 2000
Продолжительность : 1 ч. 51 м.
Вид битрейта : Постоянный
Битрейт : 256 Кбит/сек
Каналы : 2 канала
Channel layout : L R
Частота : 48,0 КГц
Частота кадров : 31,250 кадров/сек (1536 SPF)
Метод сжатия : С потерями
Размер потока : 205 Мбайт (14%)
Выравнивание : Разделение по промежуткам
Продолжительность промежутка : 42 мс. (1,00 видеокадр)
Время предзагрузки промежутка : 500 мс.
Service kind : Complete Main
Скриншоты:Все одноименные релизы в КлубеВремя раздачи: 24/7 (до 10-ти скачавших)
[Профиль] [ЛС]
Показать сообщения:    
Ответить на тему

Текущее время: 25-Фев 21:57

Часовой пояс: UTC ± 0



Вы не можете начинать темы
Вы не можете отвечать на сообщения
Вы не можете редактировать свои сообщения
Вы не можете удалять свои сообщения
Вы не можете голосовать в опросах
Вы не можете прикреплять файлы к сообщениям
Вы не можете скачивать файлы

[  Время выполнения: 0,033 сек  |  MySQL: 0,003 сек (9%) · 3 запр.  |  GZIP выкл  |  Память: 422,29 KB / 1,73 MB / 1,33 MB  |  Лимит: 20 20 18  ]