Великий / Mahaan (2022) WEBRip [H.264/720p-LQ] [MVO] [AD]

Ответить на тему
 
Автор Сообщение

admin ®

Пол: Не указан

Стаж: 6 месяца 22 дня

Сообщений: 11520

Создавать темы 30-Янв-2024 15:14

[Цитировать]

Великий / Mahaan (2022) WEBRip [H.264/720p-LQ]- Производство: Индия / Seven Screen Studios
Жанр: боевик, триллер, драма
Режиссер: Картик Суббарадж
Актеры: Чийян Викрам, Симран, Dhruv Vikram, Бобби Симха, Vettai Muthu Kumar, Санатх, Alaudeen, Amoz, Anbu, Bharathan
Описание:
Жизнь главного героя Ганди Махаана резко изменилась после того, как однажды ночью его супруга забрала сына и уехала в неизвестном направлении. Тогда главный герой был всего лишь бедным учителем, однако несколько лет спустя он стал успешным бизнесменом и владельцем целой алкогольной империи. Сын Ганди стал полицейским и тоже приобрёл определённое положение в обществе. После того злосчастного события, связанного с расставанием с семьёй, он решил круто изменить свою жизнь, присвоив наибольший приоритет своим желаниям и свободам. Теперь же Ганди не сожалеет о том, что совершил в прошлом, которое практически забылось, словно все те события произошли в предыдущей жизни…
Дата мировой премьеры: 10 февраля 2022
Продолжительность: 02:40:39
Качество видео: WEBRip
Перевод: Многоголосый профессиональный (Синема УС)
Субтитры: Отсутствуют
Реклама: Присутствует баннер.
Видео: AVC/H.264, 1280x536, ~4472 Kbps
Аудио: AC-3, 2 ch, 384 Kbps

MediaInfo:

Общее
Уникальный идентификатор : 202189162403931516912161287996595127873 (0x981C375AE0A3AA6D8A0190BD59564641)
Полное имя : D:\NNM\Великий\Mahaan.2022.WEBRip.720p-LQ.mkv
Формат : Matroska
Версия формата : Version 4
Размер файла : 5,56 Гбайт
Продолжительность : 2 ч. 40 м.
Режим общего битрейта : Постоянный
Общий поток : 4 954 Кбит/сек
Дата кодирования : UTC 2022-03-21 08:58:41
Программа кодирования : mkvmerge v6.9.1 ('Blue Panther') 32bit built on Apr 18 2014 18:15:44
Библиотека кодирования : libebml v1.3.0 + libmatroska v1.4.1
Видео
Идентификатор : 1
Формат : AVC
Формат/Информация : Advanced Video Codec
Профиль формата : High@L4.1
Настройки формата : CABAC / 4 Ref Frames
Параметр CABAC формата : Да
Параметр RefFrames формата : 4 кадра
Идентификатор кодека : V_MPEG4/ISO/AVC
Продолжительность : 2 ч. 40 м.
Вид битрейта : Постоянный
Битрейт : 4 472 Кбит/сек
Номинальный битрейт : 5 000 Кбит/сек
Ширина : 1 280 пикселей
Высота : 536 пикселей
Соотношение сторон : 2,40:1
Режим частоты кадров : Постоянный
Частота кадров : 23,976 (24000/1001) кадра/сек
Стандарт вещания : Component
Цветовое пространство : YUV
Субдискретизация насыщенности : 4:2:0
Битовая глубина : 8 бит
Тип развёртки : Прогрессивная
Бит/(Пиксели*Кадры) : 0.272
Размер потока : 5,02 Гбайт (90%)
Default : Нет
Forced : Нет
Цветовой диапазон : Limited
Основные цвета : BT.709
Характеристики трансфера : BT.709
Коэффициенты матрицы : BT.709
Аудио
Идентификатор : 2
Формат : AC-3
Формат/Информация : Audio Coding 3
Коммерческое название : Dolby Digital
Идентификатор кодека : A_AC3
Продолжительность : 2 ч. 40 м.
Вид битрейта : Постоянный
Битрейт : 384 Кбит/сек
Каналы : 2 канала
Channel layout : L R
Частота : 48,0 КГц
Частота кадров : 31,250 кадров/сек (1536 SPF)
Метод сжатия : С потерями
Размер потока : 441 Мбайт (8%)
Заголовок : MVO - ["Синема УС"
Язык : Russian
Service kind : Complete Main
Default : Да
Forced : Нет
Скриншоты: Все одноименные релизы в КлубеВремя раздачи: 24/7 (до 10-ти скачавших)
[Профиль] [ЛС]
Показать сообщения:    
Ответить на тему

Текущее время: 20-Апр 20:10

Часовой пояс: UTC ± 0



Вы не можете начинать темы
Вы не можете отвечать на сообщения
Вы не можете редактировать свои сообщения
Вы не можете удалять свои сообщения
Вы не можете голосовать в опросах
Вы не можете прикреплять файлы к сообщениям
Вы не можете скачивать файлы

[  Время выполнения: 0,039 сек  |  MySQL: 0,003 сек (9%) · 3 запр.  |  GZIP выкл  |  Память: 422,29 KB / 1,74 MB / 1,34 MB  |  Лимит: 5 5 5  ]