Преследование / Pursuit (2022) WEB-DLRip [MVO]

Ответить на тему
 
Автор Сообщение

admin ®

Пол: Не указан

Стаж: 4 месяца 27 дня

Сообщений: 10110

Создавать темы 30-Янв-2024 15:12

[Цитировать]

Преследование / Pursuit (2022) WEB-DLRip- Производство: США / Andrew Stevens Entertainment Inc., Cartouche
Жанр: боевик, триллер, драма
Режиссер: Брайан Скиба
Актеры: Эндрю Стивенс, Хезер Мари Мэрсден, Уильям Кэтт, Крис Джай Алекс, Джейк Мэнли, Элизабет Ладлоу, Эмиль Хирш, Джеймс Логан, Грэм Патрик Мартин, Джон Кьюсак
Описание:
детектив Бреслин пересекается с Кэллоуэем, безжалостным хакером, который пытается спасти свою похищенную жену от наркокартеля. Когда Кэллоуэй сбегает из-под стражи, Бреслин объединяет усилия с серьезным полицейским, чтобы вернуть своего пленника.
Рейтинг MPAA: R (лицам до 17 лет обязательно присутствие взрослого)
Дата мировой премьеры: 18 февраля 2022
Продолжительность: 01:38:18
Качество видео: WEB-DLRip
Перевод: Любительский многоголосый (@MUZOBOZ@)
Субтитры: Отсутствуют
Реклама: Присутствует аудио и видео реклама + баннер.
Видео: XviD, 720x304, ~1598 Kbps
Аудио: AC3, 2 ch, 384 Kbps

MediaInfo

Общее
Полное имя : E:\Downloads\Pursuit.2022.WEB-DLRip.avi
Формат : AVI
Формат/Информация : Audio Video Interleave
Размер файла : 1,37 Гбайт
Продолжительность : 1 ч. 38 м.
Общий поток : 1991 Кбит/сек
Программа кодирования : VirtualDubMod 1.5.10.3 | www.virtualdub-fr.org || (build 2550/release)
Библиотека кодирования : VirtualDubMod build 2550/release
Видео
Идентификатор : 0
Формат : MPEG-4 Visual
Профиль формата : Advanced Simple@L5
Параметр BVOP формата : 2
Параметр QPel формата : Нет
Параметр GMC формата : Без точки перехода
Параметр матрицы формата : Выборочная
Идентификатор кодека : XVID
Идентификатор кодека/Подсказка : XviD
Продолжительность : 1 ч. 38 м.
Битрейт : 1598 Кбит/сек
Ширина : 720 пикселей
Высота : 304 пикселя
Соотношение сторон : 2,35:1
Частота кадров : 23,976 кадра/сек
Цветовое пространство : YUV
Субдискретизация насыщенности : 4:2:0
Битовая глубина : 8 бит
Тип развёртки : Прогрессивная
Метод сжатия : С потерями
Бит/(Пиксели*Кадры) : 0.304
Размер потока : 1,10 Гбайт (80%)
Библиотека кодирования : XviD 1.2.1 (UTC 2008-12-04)
Аудио
Идентификатор : 1
Формат : AC-3
Формат/Информация : Audio Coding 3
Расширение режима : CM (complete main)
Параметр Endianness формата : Big
Идентификатор кодека : 2000
Продолжительность : 1 ч. 38 м.
Вид битрейта : Постоянный
Битрейт : 384 Кбит/сек
Каналы : 2 канала
Расположение каналов : Front: L R
Частота : 48,0 КГц
Метод сжатия : С потерями
Размер потока : 270 Мбайт (19%)
Выравнивание : Разделение по промежуткам
Продолжительность промежутка : 42 мс. (1,00 видеокадр)
Время предзагрузки промежутка : 500 мс.
Скриншоты:
Все одноименные релизы в КлубеВремя раздачи: с 10:00 до 22:00 (минимум до появления первых 3-5 скачавших)
[Профиль] [ЛС]
Показать сообщения:    
Ответить на тему

Текущее время: 25-Фев 17:42

Часовой пояс: UTC ± 0



Вы не можете начинать темы
Вы не можете отвечать на сообщения
Вы не можете редактировать свои сообщения
Вы не можете удалять свои сообщения
Вы не можете голосовать в опросах
Вы не можете прикреплять файлы к сообщениям
Вы не можете скачивать файлы

[  Время выполнения: 0,038 сек  |  MySQL: 0,004 сек (9%) · 3 запр.  |  GZIP выкл  |  Память: 422,29 KB / 1,74 MB / 1,34 MB  |  Лимит: 7 7 8  ]