Лакричная пицца / Licorice Pizza (2021) WEB-DLRip [Line, AD]

Ответить на тему
 
Автор Сообщение

admin ®

Пол: Не указан

Стаж: 4 месяца 27 дня

Сообщений: 10110

Создавать темы 30-Янв-2024 15:12

[Цитировать]

Лакричная пицца / Licorice Pizza (2021) WEB-DLRip- Производство: Канада, США / Bron Studios, Focus Features
Жанр: драма, мелодрама, комедия
Режиссер: Пол Томас Андерсон
Актеры: Купер Хоффман, Алана Хаим, Шон Пенн, Том Уэйтс, Брэдли Купер, Бенни Сэфди, Скайлер Гизондо, Мэри Элизабет Эллис, Джон Майкл Хиггинс, Кристин Эберсоул
Описание:
1973 год. Гэри всего 15 лет, но он уже достаточно смел, развязен и обладает сильным деловым чутьем, чтобы выйти за рамки дозволенного. Беспечной Алане 25, и она не ждет многого от своего будущего. Вместе они отправятся покорять солнечную Калифорнию, где встретят мужа Барбары Стрейзанд и прогрессивного политика Джоэла Уэкса.
Возраст: 18+ (зрителям, достигшим 18 лет. запрещено для детей)
Рейтинг MPAA: R (лицам до 17 лет обязательно присутствие взрослого)
Дата мировой премьеры: 26 ноября 2021
Дата российской премьеры: 13 января 2022, «UPI»
Продолжительность: 02:14:14
Качество видео: WEB-DLRip
Перевод: Дублированный (Чисты звук)
Субтитры: Отсутствуют
Реклама: Присутствует аудио и видео реклама + баннер.
Видео: XviD, 720x304, ~1259 Kbps
Аудио: AC3, 2 ch, 192 Kbps

MediaInfo

Общее
Полное имя : E:\Downloads\Licorice.Pizza.2021.WEB-DLRip.avi
Формат : AVI
Формат/Информация : Audio Video Interleave
Размер файла : 1,37 Гбайт
Продолжительность : 2 ч. 14 м.
Общий поток : 1460 Кбит/сек
Программа кодирования : VirtualDubMod 1.5.10.3 | www.virtualdub-fr.org || (build 2550/release)
Библиотека кодирования : VirtualDubMod build 2550/release
Видео
Идентификатор : 0
Формат : MPEG-4 Visual
Профиль формата : Advanced Simple@L5
Параметр BVOP формата : 2
Параметр QPel формата : Нет
Параметр GMC формата : Без точки перехода
Параметр матрицы формата : Выборочная
Идентификатор кодека : XVID
Идентификатор кодека/Подсказка : XviD
Продолжительность : 2 ч. 14 м.
Битрейт : 1259 Кбит/сек
Ширина : 720 пикселей
Высота : 304 пикселя
Соотношение сторон : 2,35:1
Частота кадров : 23,976 кадра/сек
Цветовое пространство : YUV
Субдискретизация насыщенности : 4:2:0
Битовая глубина : 8 бит
Тип развёртки : Прогрессивная
Метод сжатия : С потерями
Бит/(Пиксели*Кадры) : 0.240
Размер потока : 1,18 Гбайт (86%)
Библиотека кодирования : XviD 1.2.1 (UTC 2008-12-04)
Аудио
Идентификатор : 1
Формат : AC-3
Формат/Информация : Audio Coding 3
Расширение режима : CM (complete main)
Параметр Endianness формата : Big
Идентификатор кодека : 2000
Продолжительность : 2 ч. 14 м.
Вид битрейта : Постоянный
Битрейт : 192 Кбит/сек
Каналы : 2 канала
Расположение каналов : Front: L R
Частота : 48,0 КГц
Метод сжатия : С потерями
Размер потока : 184 Мбайт (13%)
Выравнивание : Разделение по промежуткам
Продолжительность промежутка : 42 мс. (1,00 видеокадр)
Время предзагрузки промежутка : 500 мс.
Скриншоты:
Все одноименные релизы в КлубеВремя раздачи: с 10:00 до 22:00 (минимум до появления первых 3-5 скачавших)
[Профиль] [ЛС]
Показать сообщения:    
Ответить на тему

Текущее время: 25-Фев 18:00

Часовой пояс: UTC ± 0



Вы не можете начинать темы
Вы не можете отвечать на сообщения
Вы не можете редактировать свои сообщения
Вы не можете удалять свои сообщения
Вы не можете голосовать в опросах
Вы не можете прикреплять файлы к сообщениям
Вы не можете скачивать файлы

[  Время выполнения: 0,033 сек  |  MySQL: 0,004 сек (11%) · 3 запр.  |  GZIP выкл  |  Память: 422,29 KB / 1,72 MB / 1,32 MB  |  Лимит: 9 9 9  ]