Прототип / The Prototype (2022) WEB-DLRip [H.264/1080p-LQ] [MVO, AD]

Ответить на тему
 
Автор Сообщение

admin ®

Пол: Не указан

Стаж: 4 месяца 23 дня

Сообщений: 10110

Создавать темы 30-Янв-2024 15:11

[Цитировать]

Прототип / The Prototype (2022) WEB-DLRip [H.264/1080p-LQ]
«Left for dead. Back for more»
- Производство: Италия, США, Аргентина / Proportion Productions
Жанр: фантастика, боевик, триллер
Режиссер: Марсело Грион
Продюсер: Virgil Adumitroaie, Мари Чао, Эмиль Круз
Актеры: Ameerah Abdullah, Зия Александр, Джейкоб Баеза, Кеннет Б. Бельский, Michael Bertaut, Ама Бирч, Paul Bloom, Д. Бакли, Corey Busboom, Дэвид Казимир
Описание:
Правительственный агент натыкается на заговор инопланетян о завоевании Земли. Используя жидкость, которую пришельцы создали для усиления своих солдат, он превращается в Прототип - единственную надежду человечества.
Дата российской премьеры: 25 февраля 2022
Релиз от: Anrif
Продолжительность: 01:36:21
Качество видео: WEB-DLRip
Перевод: Любительский многоголосый (MuzoBoz)
Язык озвучки: Русский
Субтитры: Отсутствуют
Реклама: Присутствует баннер!
Видео: AVC/H.264, 1916х1076, ~6010 kbps
Аудио: AС-3, 2 ch, 384 kbps

MediaInfo:

Общее
Уникальный идентификатор : 230639285838667928807041172124440987829 (0xAD8382BCE6462DB8841BDE11173008B5)
Полное имя : F:\[Anf].The.Prototype.(2022).WEB-DLRip.[1080p-LQ].mkv
Формат : Matroska
Версия формата : Version 4
Размер файла : 4,30 Гбайт
Продолжительность : 1 ч. 36 м.
Режим общего битрейта : Постоянный
Общий поток : 6 396 Кбит/сек
Название фильма : Прототип / The Prototype_(2022)
Дата кодирования : UTC 2022-03-10 23:16:59
Программа кодирования : mkvmerge v8.3.0 ('Over the Horizon') 64bit
Библиотека кодирования : libebml v1.3.1 + libmatroska v1.4.2
Обложка : Yes
Attachments : cover.jpg
Видео
Идентификатор : 1
Формат : AVC
Формат/Информация : Advanced Video Codec
Профиль формата : High@L4.1
Настройки формата : CABAC / 4 Ref Frames
Параметр CABAC формата : Да
Параметр RefFrames формата : 4 кадра
Идентификатор кодека : V_MPEG4/ISO/AVC
Продолжительность : 1 ч. 36 м.
Вид битрейта : Постоянный
Битрейт : 6 010 Кбит/сек
Номинальный битрейт : 7 000 Кбит/сек
Ширина : 1 916 пикселей
Высота : 1 076 пикселей
Соотношение сторон : 16:9
Режим частоты кадров : Постоянный
Частота кадров : 23,976 (24000/1001) кадра/сек
Стандарт вещания : Component
Цветовое пространство : YUV
Субдискретизация насыщенности : 4:2:0
Битовая глубина : 8 бит
Тип развёртки : Прогрессивная
Бит/(Пиксели*Кадры) : 0.122
Размер потока : 4,05 Гбайт (94%)
Заголовок : -=Anrif=-
Библиотека кодирования : x264 core 155
Настройки программы : cabac=1 / ref=4 / deblock=1:0:0 / analyse=0x3:0x3 / me=dia / subme=1 / psy=1 / psy_rd=1.00:0.00 / mixed_ref=0 / me_range=16 / chroma_me=1 / trellis=0 / 8x8dct=1 / cqm=1 / deadzone=21,11 / fast_pskip=1 / chroma_qp_offset=0 / threads=34 / lookahead_threads=5 / sliced_threads=0 / slices=1 / nr=0 / decimate=1 / interlaced=0 / minigop=0 / stitchable=1 / constrained_intra=0 / bframes=2 / b_pyramid=0 / b_adapt=0 / b_bias=0 / direct=1 / weightb=1 / open_gop=1 / weightp=0 / keyint=240 / keyint_min=23 / scenecut=40 / intra_refresh=0 / rc_lookahead=0 / rc=cbr / mbtree=0 / bitrate=7000 / ratetol=1.0 / qcomp=0.60 / qpmin=1 / qpmax=69 / qpstep=4 / vbv_maxrate=7000 / vbv_bufsize=7000 / nal_hrd=cbr / filler=1 / ip_ratio=1.40 / pb_ratio=1.30 / aq=1:1.00
Язык : English
Default : Нет
Forced : Нет
Цветовой диапазон : Limited
Основные цвета : BT.709
Характеристики трансфера : BT.709
Коэффициенты матрицы : BT.709
Аудио
Идентификатор : 2
Формат : AC-3
Формат/Информация : Audio Coding 3
Коммерческое название : Dolby Digital
Идентификатор кодека : A_AC3
Продолжительность : 1 ч. 36 м.
Вид битрейта : Постоянный
Битрейт : 384 Кбит/сек
Каналы : 2 канала
Channel layout : L R
Частота : 48,0 КГц
Частота кадров : 31,250 кадров/сек (1536 SPF)
Метод сжатия : С потерями
Размер потока : 265 Мбайт (6%)
Заголовок : (MVO, MuzoBoz)
Язык : Russian
Service kind : Complete Main
Default : Да
Forced : Нет
Скриншоты: Все одноименные релизы в Клубе Время раздачи: с 18:00 до 24:00 (до первых 3-5 скачавших)
[Профиль] [ЛС]
Показать сообщения:    
Ответить на тему

Текущее время: 22-Фев 00:33

Часовой пояс: UTC ± 0



Вы не можете начинать темы
Вы не можете отвечать на сообщения
Вы не можете редактировать свои сообщения
Вы не можете удалять свои сообщения
Вы не можете голосовать в опросах
Вы не можете прикреплять файлы к сообщениям
Вы не можете скачивать файлы

[  Время выполнения: 0,042 сек  |  MySQL: 0,003 сек (8%) · 3 запр.  |  GZIP выкл  |  Память: 421,85 KB / 1,72 MB / 1,32 MB  |  Лимит: 17 16 14  ]