Девочка с горы / The Girl on the Mountain (2022) WEB-DLRip [H.264/1080p-LQ] [MVO, AD]

Ответить на тему
 
Автор Сообщение

admin ®

Пол: Не указан

Стаж: 6 месяца 22 дня

Сообщений: 11520

Создавать темы 30-Янв-2024 15:10

[Цитировать]

Девочка с горы / The Girl on the Mountain (2022) WEB-DLRip [H.264/1080p-LQ]
«The signs will set you free»
- Производство: США / Movie Heroes Studios, Plus Ultra Pictures
Жанр: триллер, драма
Режиссер: Matt Sconce
Продюсер: Matt Sconce, Allan Abshire, Jennifer Ashley
Актеры: Megan Elizabeth Barker, Дэниэл О’Рейли, Sarah Dorothy Little, Райан Коз, Rebecah Rye, Allan Abshire, Д.Т. Карни, Trisha Cathey, Makenzie Sconce, Джим Так
Описание:
Переживший семейную трагедию лесник-затворник Джек получает шанс на вторую жизнь, когда судьба сталкивает его с юной девочкой, сбежавшей от преступника отца. Когда опасность снова настигает их, Джек чувствует, что обязан защитить девочку.
Рейтинг MPAA: R (лицам до 17 лет обязательно присутствие взрослого)
Релиз от: Anrif
Продолжительность: 01:32:48
Качество видео: WEB-DLRip
Перевод: Любительский многоголосый (AlphaProject)
Язык озвучки: Русский
Субтитры: Английские (hardsub на немую речь)
Реклама: Присутствует баннер!
Видео: AVC/H.264, 1920х804, ~7088 kbps
Аудио: AС-3, 2 ch, 384 kbps

MediaInfo:

Общее
Уникальный идентификатор : 202145507109936754190062581901262646822 (0x9813CEFB9A07E5389A4EE1027998EE26)
Полное имя : F:\[Anf].The.Girl.on.the.Mountain.(2022).WEB-DLRip.[1080p-LQ].mkv
Формат : Matroska
Версия формата : Version 4
Размер файла : 4,84 Гбайт
Продолжительность : 1 ч. 32 м.
Режим общего битрейта : Постоянный
Общий поток : 7 474 Кбит/сек
Название фильма : Девочка с горы / The Girl on the Mountain_(2022)
Дата кодирования : UTC 2022-03-11 19:35:28
Программа кодирования : mkvmerge v8.3.0 ('Over the Horizon') 64bit
Библиотека кодирования : libebml v1.3.1 + libmatroska v1.4.2
Обложка : Yes
Attachments : cover.jpg
Видео
Идентификатор : 1
Формат : AVC
Формат/Информация : Advanced Video Codec
Профиль формата : High@L4.1
Настройки формата : CABAC / 4 Ref Frames
Параметр CABAC формата : Да
Параметр RefFrames формата : 4 кадра
Идентификатор кодека : V_MPEG4/ISO/AVC
Продолжительность : 1 ч. 32 м.
Вид битрейта : Постоянный
Битрейт : 7 088 Кбит/сек
Номинальный битрейт : 8 000 Кбит/сек
Ширина : 1 920 пикселей
Высота : 804 пикселя
Соотношение сторон : 2,40:1
Режим частоты кадров : Постоянный
Частота кадров : 23,976 (24000/1001) кадра/сек
Стандарт вещания : Component
Цветовое пространство : YUV
Субдискретизация насыщенности : 4:2:0
Битовая глубина : 8 бит
Тип развёртки : Прогрессивная
Бит/(Пиксели*Кадры) : 0.192
Размер потока : 4,59 Гбайт (95%)
Заголовок : -=Anrif=-
Библиотека кодирования : x264 core 155
Настройки программы : cabac=1 / ref=4 / deblock=1:0:0 / analyse=0x3:0x3 / me=dia / subme=1 / psy=1 / psy_rd=1.00:0.00 / mixed_ref=0 / me_range=16 / chroma_me=1 / trellis=0 / 8x8dct=1 / cqm=1 / deadzone=21,11 / fast_pskip=1 / chroma_qp_offset=0 / threads=25 / lookahead_threads=4 / sliced_threads=0 / slices=1 / nr=0 / decimate=1 / interlaced=0 / minigop=0 / stitchable=1 / constrained_intra=0 / bframes=2 / b_pyramid=0 / b_adapt=0 / b_bias=0 / direct=1 / weightb=1 / open_gop=1 / weightp=0 / keyint=240 / keyint_min=23 / scenecut=40 / intra_refresh=0 / rc_lookahead=0 / rc=cbr / mbtree=0 / bitrate=8000 / ratetol=1.0 / qcomp=0.60 / qpmin=1 / qpmax=69 / qpstep=4 / vbv_maxrate=8000 / vbv_bufsize=8000 / nal_hrd=cbr / filler=1 / ip_ratio=1.40 / pb_ratio=1.30 / aq=1:1.00
Язык : Russian
Default : Да
Forced : Нет
Цветовой диапазон : Limited
Основные цвета : BT.709
Характеристики трансфера : BT.709
Коэффициенты матрицы : BT.709
Аудио
Идентификатор : 2
Формат : AC-3
Формат/Информация : Audio Coding 3
Коммерческое название : Dolby Digital
Идентификатор кодека : A_AC3
Продолжительность : 1 ч. 32 м.
Вид битрейта : Постоянный
Битрейт : 384 Кбит/сек
Каналы : 2 канала
Channel layout : L R
Частота : 48,0 КГц
Частота кадров : 31,250 кадров/сек (1536 SPF)
Метод сжатия : С потерями
Размер потока : 255 Мбайт (5%)
Заголовок : (MVO, AlphaProject)
Язык : Russian
Service kind : Complete Main
Default : Да
Forced : Нет
Скриншоты: Все одноименные релизы в Клубе Время раздачи: с 18:00 до 24:00 (до первых 3-5 скачавших)
[Профиль] [ЛС]
Показать сообщения:    
Ответить на тему

Текущее время: 20-Апр 19:35

Часовой пояс: UTC ± 0



Вы не можете начинать темы
Вы не можете отвечать на сообщения
Вы не можете редактировать свои сообщения
Вы не можете удалять свои сообщения
Вы не можете голосовать в опросах
Вы не можете прикреплять файлы к сообщениям
Вы не можете скачивать файлы

[  Время выполнения: 0,038 сек  |  MySQL: 0,004 сек (9%) · 3 запр.  |  GZIP выкл  |  Память: 422,29 KB / 1,74 MB / 1,36 MB  |  Лимит: 5 6 7  ]