Носорог / Носоріг (Nosorih) Rhino (2021) WEBRip [MVO] [AD]

Ответить на тему
 
Автор Сообщение

admin ®

Пол: Не указан

Стаж: 5 месяца 1 день

Сообщений: 10110

Создавать темы 30-Янв-2024 15:06

[Цитировать]

Носорог / Носоріг (Nosorih) Rhino (2021) WEBRip - Производство: Украина, Германия, Польша / Apple Film Productions, Arthouse Traffic, Cry Cinema, DI Factory, Eurimages, Ma.ja.de. Fiction, Medienboard Berlin-Brandenburg, Polish Film Institute, Ukrainian State Film Agency, ZDF/Arte
Жанр: драма, криминал
Режиссер: Олег Сенцов
Актеры: Margo Dumas, Александр Рудинский, Олег Карпенко, Георгий Поволоцкий, Вячеслав Бабенков, Pavlo Shpegun, Alina Zievakova, Serhii Filimonov, Ярослав Безкоровайный, Ирина Мак
Описание:
Герой фильма – обычный бандит из 90-х, прозванный Носорогом за характер и за шишку от удара гантелей на первой разборке. Он однажды понимает - так жить нельзя. Носорог вспоминает этапы своей жизни, очерствения, моменты, когда он потерял членов своей семьи. Он приходит к выводу, что все испытания в жизни посылаются не за что-то, а для чего-то. Но для чего? И к чему он теперь готов?
Дата мировой премьеры: 9 сентября 2021
Продолжительность: 01:38:26
Качество видео: WEBRip
Перевод: Многоголосый профессиональный (Синема УС)
Субтитры: Польские (хардсаб)
Реклама: Присутствует баннер.
Видео: XviD, 720x384, ~1855 Kbps
Аудио: AC-3, 2 ch, 256 Kbps

MediaInfo:

Общее
Полное имя : D:\NNM\Носорог\Nosorih.2021.WEBRip.avi
Формат : AVI
Формат/Информация : Audio Video Interleave
Размер файла : 1,46 Гбайт
Продолжительность : 1 ч. 38 м.
Общий поток : 2 120 Кбит/сек
Программа кодирования : VirtualDubMod 1.5.10.3 | www.virtualdub-fr.org || (build 2550/release)
Библиотека кодирования : VirtualDubMod build 2550/release
Видео
Идентификатор : 0
Формат : MPEG-4 Visual
Профиль формата : Advanced Simple@L5
Настройки формата : BVOP1 / Custom Matrix
Параметр BVOP формата : 1
Параметр QPel формата : Нет
Параметр GMC формата : Без точки перехода
Параметр матрицы формата : Выборочная
Идентификатор кодека : XVID
Идентификатор кодека/Подсказка : XviD
Продолжительность : 1 ч. 38 м.
Битрейт : 1 855 Кбит/сек
Ширина : 720 пикселей
Высота : 384 пикселя
Соотношение сторон : 1,85:1
Частота кадров : 23,976 (24000/1001) кадра/сек
Цветовое пространство : YUV
Субдискретизация насыщенности : 4:2:0
Битовая глубина : 8 бит
Тип развёртки : Прогрессивная
Метод сжатия : С потерями
Бит/(Пиксели*Кадры) : 0.280
Размер потока : 1,28 Гбайт (87%)
Библиотека кодирования : XviD 1.2.1 (UTC 2008-12-04)
Аудио
Идентификатор : 1
Формат : AC-3
Формат/Информация : Audio Coding 3
Коммерческое название : Dolby Digital
Идентификатор кодека : 2000
Продолжительность : 1 ч. 38 м.
Вид битрейта : Постоянный
Битрейт : 256 Кбит/сек
Каналы : 2 канала
Channel layout : L R
Частота : 48,0 КГц
Частота кадров : 31,250 кадров/сек (1536 SPF)
Метод сжатия : С потерями
Размер потока : 180 Мбайт (12%)
Выравнивание : Разделение по промежуткам
Продолжительность промежутка : 42 мс. (1,00 видеокадр)
Время предзагрузки промежутка : 500 мс.
Service kind : Complete Main
Скриншоты: Все одноименные релизы в КлубеВремя раздачи: 24/7 (до 10-ти скачавших)
[Профиль] [ЛС]
Показать сообщения:    
Ответить на тему

Текущее время: 29-Фев 13:02

Часовой пояс: UTC ± 0



Вы не можете начинать темы
Вы не можете отвечать на сообщения
Вы не можете редактировать свои сообщения
Вы не можете удалять свои сообщения
Вы не можете голосовать в опросах
Вы не можете прикреплять файлы к сообщениям
Вы не можете скачивать файлы

[  Время выполнения: 0,035 сек  |  MySQL: 0,003 сек (9%) · 3 запр.  |  GZIP выкл  |  Память: 422,29 KB / 1,74 MB / 1,34 MB  |  Лимит: 17 19 18  ]