Жестокий человек / A Violent Man (2022) WEBRip [H.264/1080p-LQ] [MVO] [AD]

Ответить на тему
 
Автор Сообщение

admin ®

Пол: Не указан

Стаж: 4 месяца 23 дня

Сообщений: 10110

Создавать темы 30-Янв-2024 15:06

[Цитировать]

Жестокий человек / A Violent Man (2022) WEBRip [H.264/1080p-LQ]- Производство: Великобритания / Ascendant Films, Burton Fox FilmsBromantics
Жанр: криминал
Режиссер: Росс МакКолл
Актеры: Крэйг Фэйрбрасс, Стивен Одубола, Джейсон Флеминг, Росс МакКолл, Ульрих Томсен, Зои Таппер, Робин Лэйн, Фил Барантини, Морган Уоткинс, Томас Доминик
Описание:
Стив Макелсон — опасный заключённый, отбывающий наказание за двойное убийство в тюрьме строгого режима. Он делит камеру вместе с молодым чернокожим членом банды и пытается бороться с чувством искупления и разобраться с поглощающим его хаосом. Всё меняется, когда дочь, которую он никогда не видел, просит встретиться с ним лицом к лицу и обсудить то, что волновало её все эти годы.
Дата мировой премьеры: 4 февраля 2022
Продолжительность: 01:43:36
Качество видео: WEBRip
Перевод: Многоголосый любительский (MUZOBOZ)
Субтитры: Отсутствуют
Реклама: Присутствует баннер.
Видео: AVC/H.264, 1916x956, ~7657 Kbps
Аудио: AC3, 2 ch, 384 Kbps

MediaInfo:

Общее
Полное имя : D:\NNM\Жестокий человек\A.Violent.Man.2022.WEBRip.1080p-LQ.mkv
Формат : Matroska
Версия формата : Version 2
Размер файла : 5,94 Гбайт
Продолжительность : 1 ч. 43 м.
Режим общего битрейта : Постоянный
Общий поток : 8 204 Кбит/сек
Программа кодирования : libmatroska 1.4.1
Библиотека кодирования : SolveigMM Matroska Muxer Version 1.0.1904.23
Видео
Идентификатор : 1
Формат : AVC
Формат/Информация : Advanced Video Codec
Профиль формата : High@L4.1
Настройки формата : CABAC / 4 Ref Frames
Параметр CABAC формата : Да
Параметр RefFrames формата : 4 кадра
Идентификатор кодека : V_MPEG4/ISO/AVC
Продолжительность : 1 ч. 43 м.
Вид битрейта : Постоянный
Битрейт : 7 657 Кбит/сек
Номинальный битрейт : 9 000 Кбит/сек
Ширина : 1 916 пикселей
Высота : 956 пикселей
Соотношение сторон : 2,004
Режим частоты кадров : Постоянный
Частота кадров : 23,976 (24000/1001) кадра/сек
Стандарт вещания : Component
Цветовое пространство : YUV
Субдискретизация насыщенности : 4:2:0
Битовая глубина : 8 бит
Тип развёртки : Прогрессивная
Бит/(Пиксели*Кадры) : 0.174
Размер потока : 5,54 Гбайт (93%)
Default : Нет
Forced : Нет
Цветовой диапазон : Limited
Основные цвета : BT.709
Характеристики трансфера : BT.709
Коэффициенты матрицы : BT.709
Аудио
Идентификатор : 2
Формат : AC-3
Формат/Информация : Audio Coding 3
Коммерческое название : Dolby Digital
Идентификатор кодека : A_AC3
Продолжительность : 1 ч. 43 м.
Вид битрейта : Постоянный
Битрейт : 384 Кбит/сек
Каналы : 2 канала
Channel layout : L R
Частота : 48,0 КГц
Частота кадров : 31,250 кадров/сек (1536 SPF)
Метод сжатия : С потерями
Размер потока : 285 Мбайт (5%)
Язык : Russian
Service kind : Complete Main
Default : Нет
Forced : Нет
Скриншоты: Все одноименные релизы в КлубеВремя раздачи: 24/7 (до 10-ти скачавших)
[Профиль] [ЛС]
Показать сообщения:    
Ответить на тему

Текущее время: 22-Фев 02:27

Часовой пояс: UTC ± 0



Вы не можете начинать темы
Вы не можете отвечать на сообщения
Вы не можете редактировать свои сообщения
Вы не можете удалять свои сообщения
Вы не можете голосовать в опросах
Вы не можете прикреплять файлы к сообщениям
Вы не можете скачивать файлы

[  Время выполнения: 0,037 сек  |  MySQL: 0,003 сек (9%) · 3 запр.  |  GZIP выкл  |  Память: 421,85 KB / 1,73 MB / 1,34 MB  |  Лимит: 9 8 9  ]